<?xml version="1.0" standalone="no"?>
<!DOCTYPE svg PUBLIC "-//W3C//DTD SVG 1.1//EN" "http://www.w3.org/Graphics/SVG/1.1/DTD/svg11.dtd" >
<svg xmlns="http://www.w3.org/2000/svg" xmlns:xlink="http://www.w3.org/1999/xlink" version="1.1">
<metadata>
Created by FontForge 20201107 at Thu Jun 25 18:25:36 2020
 By Unknown
Copyright 2020 The Epilogue Project Authors (https://github.com/Etcetera-Type-Co/Epilogue)
</metadata>
<defs>
<font id="Epilogue-ExtraBold" horiz-adv-x="0" >
  <font-face 
    font-family="Epilogue ExtraBold"
    font-weight="800"
    font-stretch="normal"
    units-per-em="2000"
    panose-1="0 0 0 0 0 0 0 0 0 0"
    ascent="1600"
    descent="-400"
    x-height="1062"
    cap-height="1475"
    bbox="-508 -479 2592 2266"
    underline-thickness="50"
    underline-position="-125"
    unicode-range="U+000D-FB02"
  />
<missing-glyph horiz-adv-x="669" 
d="M80 73v1344h509v-1344h-509zM119 107h431v1276h-431v-1276zM230 1048l-30 26l110 98l-110 98l30 25l109 -97l109 97l30 -25l-110 -98l110 -98l-30 -26l-109 98zM230 612l-30 26l109 98l-109 98l30 26l109 -98l109 98l30 -26l-109 -98l109 -98l-30 -26l-109 98zM230 176
l-30 26l109 98l-109 98l30 26l109 -98l109 98l30 -26l-109 -98l109 -98l-30 -26l-109 98z" />
    <glyph glyph-name="f_f" unicode="ff" horiz-adv-x="1811" 
d="M238 0v792h-217v270h217v52q0 146 50.5 237t128.5 140.5t165 67.5t161 18q71 0 105 -8t46 -13v-272q-12 4 -43.5 9.5t-66.5 5.5q-110 0 -150 -52.5t-40 -141.5v-43h277v-270h-277v-792h-356zM1144 0v792h-217v270h217v52q0 146 50.5 237t128.5 140.5t165 67.5t161 18
q71 0 105 -8t46 -13v-272q-12 4 -43.5 9.5t-66.5 5.5q-110 0 -150 -52.5t-40 -141.5v-43h277v-270h-277v-792h-356z" />
    <glyph glyph-name="f_f_i" unicode="ffi" horiz-adv-x="2345" 
d="M238 0v792h-217v270h217v52q0 146 50.5 237t128.5 140.5t165 67.5t161 18q71 0 105 -8t46 -13v-272q-12 4 -43.5 9.5t-66.5 5.5q-110 0 -150 -52.5t-40 -141.5v-43h277v-270h-277v-792h-356zM1144 0v792h-217v270h217v52q0 146 50.5 237t128.5 140.5t165 67.5t161 18
q71 0 105 -8t46 -13v-272q-12 4 -43.5 9.5t-66.5 5.5q-110 0 -150 -52.5t-40 -141.5v-43h277v-270h-277v-792h-356zM2078 1211q-81 0 -141 42t-60 119q0 78 60 119.5t141 41.5q80 0 140.5 -41.5t60.5 -119.5t-60.5 -119.5t-140.5 -41.5zM1902 0v1062h353v-1062h-353z" />
    <glyph glyph-name="f_f_l" unicode="ffl" horiz-adv-x="2404" 
d="M238 0v792h-217v270h217v52q0 146 50.5 237t128.5 140.5t165 67.5t161 18q71 0 105 -8t46 -13v-272q-12 4 -43.5 9.5t-66.5 5.5q-110 0 -150 -52.5t-40 -141.5v-43h277v-270h-277v-792h-356zM1144 0v792h-217v270h217v52q0 146 50.5 237t128.5 140.5t165 67.5t161 18
q71 0 105 -8t46 -13v-272q-12 4 -43.5 9.5t-66.5 5.5q-110 0 -150 -52.5t-40 -141.5v-43h277v-270h-277v-792h-356zM2288 1563v-1563h-351v1563h351z" />
    <glyph glyph-name="fi" unicode="fi" horiz-adv-x="1440" 
d="M238 0v792h-217v270h217v52q0 146 50.5 237t128.5 140.5t165 67.5t161 18q71 0 105 -8t46 -13v-272q-12 4 -43.5 9.5t-66.5 5.5q-110 0 -150 -52.5t-40 -141.5v-43h277v-270h-277v-792h-356zM1173 1211q-81 0 -141 42t-60 119q0 78 60 119.5t141 41.5q80 0 140.5 -41.5
t60.5 -119.5t-60.5 -119.5t-140.5 -41.5zM997 0v1062h353v-1062h-353z" />
    <glyph glyph-name="fl" unicode="fl" horiz-adv-x="1498" 
d="M238 0v792h-217v270h217v52q0 146 50.5 237t128.5 140.5t165 67.5t161 18q71 0 105 -8t46 -13v-272q-12 4 -43.5 9.5t-66.5 5.5q-110 0 -150 -52.5t-40 -141.5v-43h277v-270h-277v-792h-356zM1383 1563v-1563h-351v1563h351z" />
    <glyph glyph-name=".notdef" horiz-adv-x="669" 
d="M80 73v1344h509v-1344h-509zM119 107h431v1276h-431v-1276zM230 1048l-30 26l110 98l-110 98l30 25l109 -97l109 97l30 -25l-110 -98l110 -98l-30 -26l-109 98zM230 612l-30 26l109 98l-109 98l30 26l109 -98l109 98l30 -26l-109 -98l109 -98l-30 -26l-109 98zM230 176
l-30 26l109 98l-109 98l30 26l109 -98l109 98l30 -26l-109 -98l109 -98l-30 -26l-109 98z" />
    <glyph glyph-name="A" unicode="A" horiz-adv-x="1370" 
d="M48 0l355 1476h566l354 -1476h-366l-70 326h-403l-71 -326h-365zM543 599h285l-141 657z" />
    <glyph glyph-name="Aacute" unicode="&#xc1;" horiz-adv-x="1370" 
d="M48 0l355 1476h566l354 -1476h-366l-70 326h-403l-71 -326h-365zM543 599h285l-141 657zM505 1561l270 215h274l-308 -215h-236z" />
    <glyph glyph-name="Abreve" unicode="&#x102;" horiz-adv-x="1370" 
d="M48 0l355 1476h566l354 -1476h-366l-70 326h-403l-71 -326h-365zM543 599h285l-141 657zM381 1759h206q0 -37 26 -63t74 -26q49 0 74.5 26t25.5 63h207q0 -101 -87 -162t-220 -61t-219.5 61t-86.5 162z" />
    <glyph glyph-name="uni1EAE" unicode="&#x1eae;" horiz-adv-x="1370" 
d="M48 0l355 1476h566l354 -1476h-366l-70 326h-403l-71 -326h-365zM543 599h285l-141 657zM381 1759h206q0 -37 26 -63t74 -26q49 0 74.5 26t25.5 63h207q0 -101 -87 -162t-220 -61t-219.5 61t-86.5 162zM505 1837l270 215h274l-308 -215h-236z" />
    <glyph glyph-name="uni1EB6" unicode="&#x1eb6;" horiz-adv-x="1370" 
d="M48 0l355 1476h566l354 -1476h-366l-70 326h-403l-71 -326h-365zM543 599h285l-141 657zM684 -436q-81 0 -140.5 42t-59.5 120t59.5 119.5t140.5 41.5q80 0 140.5 -41.5t60.5 -119.5q0 -79 -60.5 -120.5t-140.5 -41.5zM381 1759h206q0 -37 26 -63t74 -26q49 0 74.5 26
t25.5 63h207q0 -101 -87 -162t-220 -61t-219.5 61t-86.5 162z" />
    <glyph glyph-name="uni1EB0" unicode="&#x1eb0;" horiz-adv-x="1370" 
d="M48 0l355 1476h566l354 -1476h-366l-70 326h-403l-71 -326h-365zM543 599h285l-141 657zM381 1759h206q0 -37 26 -63t74 -26q49 0 74.5 26t25.5 63h207q0 -101 -87 -162t-220 -61t-219.5 61t-86.5 162zM868 1837h-237l-307 215h274z" />
    <glyph glyph-name="uni1EB2" unicode="&#x1eb2;" horiz-adv-x="1370" 
d="M48 0l355 1476h566l354 -1476h-366l-70 326h-403l-71 -326h-365zM543 599h285l-141 657zM381 1759h206q0 -37 26 -63t74 -26q49 0 74.5 26t25.5 63h207q0 -101 -87 -162t-220 -61t-219.5 61t-86.5 162zM469 2096q113 0 211.5 -8.5t159.5 -39t61 -94.5q0 -83 -85.5 -121.5
t-215.5 -38.5l-35 90q30 2 69.5 7.5t69 16.5t29.5 32q0 30 -69 39t-195 9v108z" />
    <glyph glyph-name="uni1EB4" unicode="&#x1eb4;" horiz-adv-x="1370" 
d="M48 0l355 1476h566l354 -1476h-366l-70 326h-403l-71 -326h-365zM543 599h285l-141 657zM381 1759h206q0 -37 26 -63t74 -26q49 0 74.5 26t25.5 63h207q0 -101 -87 -162t-220 -61t-219.5 61t-86.5 162zM1042 2070q0 -58 -23 -115.5t-69.5 -95.5t-118.5 -38
q-57 0 -93.5 22t-58.5 42q-22 21 -42 35.5t-46 14.5q-64 0 -65 -95h-177q0 59 24 116.5t72.5 96t122.5 38.5q51 0 88 -22t59 -42q23 -21 45.5 -35.5t46.5 -14.5q58 0 59 93h176z" />
    <glyph glyph-name="uni01CD" unicode="&#x1cd;" horiz-adv-x="1370" 
d="M48 0l355 1476h566l354 -1476h-366l-70 326h-403l-71 -326h-365zM543 599h285l-141 657zM324 1775h222l140 -124l140 124h223l-249 -216h-226z" />
    <glyph glyph-name="Acircumflex" unicode="&#xc2;" horiz-adv-x="1370" 
d="M48 0l355 1476h566l354 -1476h-366l-70 326h-403l-71 -326h-365zM543 599h285l-141 657zM324 1559l250 216h226l249 -216h-223l-140 125l-140 -125h-222z" />
    <glyph glyph-name="uni1EA4" unicode="&#x1ea4;" horiz-adv-x="1370" 
d="M48 0l355 1476h566l354 -1476h-366l-70 326h-403l-71 -326h-365zM543 599h285l-141 657zM926 1721l226 215h221l-239 -215h-208zM324 1559l250 216h226l249 -216h-223l-141 125l-139 -125h-222z" />
    <glyph glyph-name="uni1EAC" unicode="&#x1eac;" horiz-adv-x="1370" 
d="M48 0l355 1476h566l354 -1476h-366l-70 326h-403l-71 -326h-365zM543 599h285l-141 657zM684 -436q-81 0 -140.5 42t-59.5 120t59.5 119.5t140.5 41.5q80 0 140.5 -41.5t60.5 -119.5q0 -79 -60.5 -120.5t-140.5 -41.5zM324 1559l250 216h226l249 -216h-223l-140 125
l-140 -125h-222z" />
    <glyph glyph-name="uni1EA6" unicode="&#x1ea6;" horiz-adv-x="1370" 
d="M48 0l355 1476h566l354 -1476h-366l-70 326h-403l-71 -326h-365zM543 599h285l-141 657zM1229 1721h-207l-240 215h222zM327 1559l250 216h226l249 -216h-223l-140 125l-140 -125h-222z" />
    <glyph glyph-name="uni1EA8" unicode="&#x1ea8;" horiz-adv-x="1370" 
d="M48 0l355 1476h566l354 -1476h-366l-70 326h-403l-71 -326h-365zM543 599h285l-141 657zM820 2017q114 0 212.5 -9t159.5 -39t61 -94q0 -83 -85.5 -122t-215.5 -39l-35 91q30 2 69.5 7t68.5 16.5t29 32.5q0 30 -68.5 39t-195.5 9v108zM325 1559l250 216h226l249 -216
h-223l-140 125l-140 -125h-222z" />
    <glyph glyph-name="uni1EAA" unicode="&#x1eaa;" horiz-adv-x="1370" 
d="M48 0l355 1476h566l354 -1476h-366l-70 326h-403l-71 -326h-365zM543 599h285l-141 657zM324 1559l250 216h226l249 -216h-223l-140 125l-140 -125h-222zM1042 2094q0 -58 -23 -115.5t-69.5 -95.5t-118.5 -38q-57 0 -93.5 22t-58.5 42q-22 21 -42 35.5t-46 14.5
q-64 0 -65 -95h-177q0 59 24 116.5t72.5 96t122.5 38.5q51 0 88 -22t59 -42q23 -21 45.5 -35.5t46.5 -14.5q58 0 59 93h176z" />
    <glyph glyph-name="uni0200" unicode="&#x200;" horiz-adv-x="1370" 
d="M48 0l355 1476h566l354 -1476h-366l-70 326h-403l-71 -326h-365zM543 599h285l-141 657zM952 1560h-187l-209 217h211zM612 1560h-187l-236 217h212z" />
    <glyph glyph-name="Adieresis" unicode="&#xc4;" horiz-adv-x="1370" 
d="M48 0l355 1476h566l354 -1476h-366l-70 326h-403l-71 -326h-365zM543 599h285l-141 657zM430 1536q-73 0 -128 38.5t-55 109.5t55 109t128 38t128.5 -38t55.5 -109q0 -72 -55.5 -110t-128.5 -38zM944 1536q-73 0 -128 38.5t-55 109.5t55 109t128 38t128 -38t55 -109
q0 -72 -55 -110t-128 -38z" />
    <glyph glyph-name="uni01DE" unicode="&#x1de;" horiz-adv-x="1370" 
d="M48 0l355 1476h566l354 -1476h-366l-70 326h-403l-71 -326h-365zM543 599h285l-141 657zM430 1536q-73 0 -128 38.5t-55 109.5t55 109t128 38t128.5 -38t55.5 -109q0 -72 -55.5 -110t-128.5 -38zM944 1536q-73 0 -128 38.5t-55 109.5t55 109t128 38t128 -38t55 -109
q0 -72 -55 -110t-128 -38zM357 1919v146h658v-146h-658z" />
    <glyph glyph-name="uni1EA0" unicode="&#x1ea0;" horiz-adv-x="1370" 
d="M48 0l355 1476h566l354 -1476h-366l-70 326h-403l-71 -326h-365zM543 599h285l-141 657zM684 -436q-81 0 -140.5 42t-59.5 120t59.5 119.5t140.5 41.5q80 0 140.5 -41.5t60.5 -119.5q0 -79 -60.5 -120.5t-140.5 -41.5z" />
    <glyph glyph-name="Agrave" unicode="&#xc0;" horiz-adv-x="1370" 
d="M48 0l355 1476h566l354 -1476h-366l-70 326h-403l-71 -326h-365zM543 599h285l-141 657zM868 1561h-237l-307 215h274z" />
    <glyph glyph-name="uni1EA2" unicode="&#x1ea2;" horiz-adv-x="1370" 
d="M48 0l355 1476h566l354 -1476h-366l-70 326h-403l-71 -326h-365zM543 599h285l-141 657zM469 1820q113 0 211.5 -8.5t159.5 -39t61 -94.5q0 -83 -85.5 -121.5t-215.5 -38.5l-35 90q30 2 69.5 7.5t69 16.5t29.5 32q0 30 -69 39t-195 9v108z" />
    <glyph glyph-name="uni0202" unicode="&#x202;" horiz-adv-x="1370" 
d="M48 0l355 1476h566l354 -1476h-366l-70 326h-403l-71 -326h-365zM543 599h285l-141 657zM381 1557q0 102 86.5 162.5t219.5 60.5t220 -60.5t87 -162.5h-207q0 37 -25.5 63t-74.5 26q-48 0 -74 -26t-26 -63h-206z" />
    <glyph glyph-name="Amacron" unicode="&#x100;" horiz-adv-x="1370" 
d="M48 0l355 1476h566l354 -1476h-366l-70 326h-403l-71 -326h-365zM543 599h285l-141 657zM357 1609v146h658v-146h-658z" />
    <glyph glyph-name="Aogonek" unicode="&#x104;" horiz-adv-x="1370" 
d="M48 0l355 1476h566l354 -1476h-366l-70 326h-403l-71 -326h-365zM543 599h285l-141 657zM1322 -283v-168q-20 -2 -44 -3.5t-50 -1.5q-71 0 -135 16t-104.5 53t-40.5 100q0 64 38 121.5t86 100.5t80 65h170q-27 -22 -67 -64.5t-71 -87.5t-31 -77q0 -36 28.5 -48t66.5 -12
q19 0 38.5 2t35.5 4z" />
    <glyph glyph-name="Aring" unicode="&#xc5;" horiz-adv-x="1370" 
d="M48 0l355 1476h566l354 -1476h-366l-70 326h-403l-71 -326h-365zM543 599h285l-141 657zM687 1516q-67 0 -121.5 32.5t-87 87.5t-32.5 121t32.5 121t87 87.5t121.5 32.5q66 0 120.5 -32.5t87.5 -87.5t33 -121t-33 -121t-87.5 -87.5t-120.5 -32.5zM687 1668q37 0 63 26
t26 63q0 38 -26 64t-63 26q-38 0 -64 -26t-26 -64q0 -37 26 -63t64 -26z" />
    <glyph glyph-name="Aringacute" unicode="&#x1fa;" horiz-adv-x="1370" 
d="M48 0l355 1476h566l354 -1476h-366l-70 326h-403l-71 -326h-365zM543 599h285l-141 657zM687 1516q-67 0 -121.5 32.5t-87 87.5t-32.5 121t32.5 121t87 87.5t121.5 32.5q66 0 120.5 -32.5t87.5 -87.5t33 -121t-33 -121t-87.5 -87.5t-120.5 -32.5zM687 1668q37 0 63 26
t26 63q0 38 -26 64t-63 26q-38 0 -64 -26t-26 -64q0 -37 26 -63t64 -26zM505 2051l270 215h274l-308 -215h-236z" />
    <glyph glyph-name="Atilde" unicode="&#xc3;" horiz-adv-x="1370" 
d="M48 0l355 1476h566l354 -1476h-366l-70 326h-403l-71 -326h-365zM543 599h285l-141 657zM1042 1794q0 -58 -23 -115.5t-69.5 -95.5t-118.5 -38q-57 0 -93.5 22t-58.5 42q-22 21 -42 35.5t-46 14.5q-64 0 -65 -95h-177q0 59 24 116.5t72.5 96t122.5 38.5q51 0 88 -22
t59 -42q23 -21 45.5 -35.5t46.5 -14.5q58 0 59 93h176z" />
    <glyph glyph-name="AE" unicode="&#xc6;" horiz-adv-x="2027" 
d="M0 0l841 1475h1070v-270h-585v-330h474v-270h-474v-335h585v-270h-927v273h-451l-146 -273h-387zM671 530h313v584z" />
    <glyph glyph-name="AEacute" unicode="&#x1fc;" horiz-adv-x="2027" 
d="M0 0l841 1475h1070v-270h-585v-330h474v-270h-474v-335h585v-270h-927v273h-451l-146 -273h-387zM671 530h313v584zM1067 1561l270 215h274l-308 -215h-236z" />
    <glyph glyph-name="B" unicode="B" horiz-adv-x="1305" 
d="M730 1475q240 0 348.5 -99.5t108.5 -258.5q0 -107 -42 -183.5t-105.5 -119t-129.5 -47.5q67 -2 140 -36t124 -109t51 -201q0 -118 -47 -213.5t-155.5 -151.5t-293.5 -56h-613v1475h614zM638 1205h-182v-314h174q104 0 152.5 46t48.5 119q0 149 -193 149zM659 271
q102 0 152 48t50 124q0 80 -54 130t-154 50h-197v-352h203z" />
    <glyph glyph-name="C" unicode="C" horiz-adv-x="1440" 
d="M1364 548q0 -98 -37.5 -199t-113.5 -185.5t-193 -136.5t-275 -52q-212 0 -361.5 97.5t-228.5 269.5t-79 396t79 395.5t228.5 268.5t361.5 97q175 0 299 -62t199 -161t103 -210q18 -72 18 -139h-358q0 31 -4 57q-15 103 -81.5 168.5t-175.5 65.5q-131 0 -218.5 -115
t-87.5 -365q0 -251 87.5 -367t218.5 -116q82 0 140.5 40t89.5 106.5t31 146.5h358z" />
    <glyph glyph-name="Cacute" unicode="&#x106;" horiz-adv-x="1440" 
d="M1364 548q0 -98 -37.5 -199t-113.5 -185.5t-193 -136.5t-275 -52q-212 0 -361.5 97.5t-228.5 269.5t-79 396t79 395.5t228.5 268.5t361.5 97q175 0 299 -62t199 -161t103 -210q18 -72 18 -139h-358q0 31 -4 57q-15 103 -81.5 168.5t-175.5 65.5q-131 0 -218.5 -115
t-87.5 -365q0 -251 87.5 -367t218.5 -116q82 0 140.5 40t89.5 106.5t31 146.5h358zM554 1561l270 215h274l-308 -215h-236z" />
    <glyph glyph-name="Ccaron" unicode="&#x10c;" horiz-adv-x="1440" 
d="M1364 548q0 -98 -37.5 -199t-113.5 -185.5t-193 -136.5t-275 -52q-212 0 -361.5 97.5t-228.5 269.5t-79 396t79 395.5t228.5 268.5t361.5 97q175 0 299 -62t199 -161t103 -210q18 -72 18 -139h-358q0 31 -4 57q-15 103 -81.5 168.5t-175.5 65.5q-131 0 -218.5 -115
t-87.5 -365q0 -251 87.5 -367t218.5 -116q82 0 140.5 40t89.5 106.5t31 146.5h358zM373 1775h222l140 -124l140 124h223l-249 -216h-226z" />
    <glyph glyph-name="Ccedilla" unicode="&#xc7;" horiz-adv-x="1440" 
d="M858 -65q36 0 72.5 -14.5t61.5 -47.5t25 -88q0 -69 -42.5 -113t-109.5 -64.5t-140 -20.5q-65 0 -133.5 16.5t-97.5 36.5l68 127q20 -12 71 -31t104 -19q54 0 90.5 19t36.5 56q0 29 -18 42t-44 13q-23 0 -46.5 -8t-35.5 -25l-131 36l64 131q-187 22 -315.5 127.5t-195 269
t-66.5 360.5q0 212 77.5 384.5t226.5 274.5t365 102q175 0 299 -62t199 -161t103 -210q18 -72 18 -139h-358q0 31 -4 57q-15 103 -81.5 168.5t-175.5 65.5q-131 0 -218.5 -115t-87.5 -365q0 -251 87.5 -367t218.5 -116q82 0 140.5 40t89.5 106.5t31 146.5h358
q0 -94 -34 -190.5t-103.5 -179.5t-176 -137t-250.5 -64l-32 -63q33 21 90 21z" />
    <glyph glyph-name="uni1E08" unicode="&#x1e08;" horiz-adv-x="1440" 
d="M858 -65q36 0 72.5 -14.5t61.5 -47.5t25 -88q0 -69 -42.5 -113t-109.5 -64.5t-140 -20.5q-65 0 -133.5 16.5t-97.5 36.5l68 127q20 -12 71 -31t104 -19q54 0 90.5 19t36.5 56q0 29 -18 42t-44 13q-23 0 -46.5 -8t-35.5 -25l-131 36l64 131q-187 22 -315.5 127.5t-195 269
t-66.5 360.5q0 212 77.5 384.5t226.5 274.5t365 102q175 0 299 -62t199 -161t103 -210q18 -72 18 -139h-358q0 31 -4 57q-15 103 -81.5 168.5t-175.5 65.5q-131 0 -218.5 -115t-87.5 -365q0 -251 87.5 -367t218.5 -116q82 0 140.5 40t89.5 106.5t31 146.5h358
q0 -94 -34 -190.5t-103.5 -179.5t-176 -137t-250.5 -64l-32 -63q33 21 90 21zM554 1561l270 215h274l-308 -215h-236z" />
    <glyph glyph-name="Ccircumflex" unicode="&#x108;" horiz-adv-x="1440" 
d="M1364 548q0 -98 -37.5 -199t-113.5 -185.5t-193 -136.5t-275 -52q-212 0 -361.5 97.5t-228.5 269.5t-79 396t79 395.5t228.5 268.5t361.5 97q175 0 299 -62t199 -161t103 -210q18 -72 18 -139h-358q0 31 -4 57q-15 103 -81.5 168.5t-175.5 65.5q-131 0 -218.5 -115
t-87.5 -365q0 -251 87.5 -367t218.5 -116q82 0 140.5 40t89.5 106.5t31 146.5h358zM373 1559l250 216h226l249 -216h-223l-140 125l-140 -125h-222z" />
    <glyph glyph-name="Cdotaccent" unicode="&#x10a;" horiz-adv-x="1440" 
d="M1364 548q0 -98 -37.5 -199t-113.5 -185.5t-193 -136.5t-275 -52q-212 0 -361.5 97.5t-228.5 269.5t-79 396t79 395.5t228.5 268.5t361.5 97q175 0 299 -62t199 -161t103 -210q18 -72 18 -139h-358q0 31 -4 57q-15 103 -81.5 168.5t-175.5 65.5q-131 0 -218.5 -115
t-87.5 -365q0 -251 87.5 -367t218.5 -116q82 0 140.5 40t89.5 106.5t31 146.5h358zM738 1560q-80 0 -140 42t-60 119q0 78 60 119.5t140 41.5q81 0 141 -41.5t60 -119.5t-60 -119.5t-141 -41.5z" />
    <glyph glyph-name="D" unicode="D" horiz-adv-x="1372" 
d="M116 0v1475h513q198 0 348 -94.5t234.5 -260.5t84.5 -380t-84.5 -381t-234.5 -263t-348 -96h-513zM581 1205h-107v-935h107q97 0 177 57t128 162.5t48 250.5q0 146 -48 250t-128 159.5t-177 55.5z" />
    <glyph glyph-name="uni01C4" unicode="&#x1c4;" horiz-adv-x="2476" 
d="M116 0v1475h513q198 0 348 -94.5t234.5 -260.5t84.5 -380t-84.5 -381t-234.5 -263t-348 -96h-513zM581 1205h-107v-935h107q97 0 177 57t128 162.5t48 250.5q0 146 -48 250t-128 159.5t-177 55.5zM1768 271h617v-271h-1017v232l627 973h-581v270h980v-229l-626 -973v-2z
M1524 1775h222l140 -124l140 124h223l-249 -216h-226z" />
    <glyph glyph-name="Eth" unicode="&#xd0;" horiz-adv-x="1372" 
d="M116 0v655h-103v160h103v660h513q198 0 348 -94.5t234.5 -260.5t84.5 -380t-84.5 -381t-234.5 -263t-348 -96h-513zM752 655h-278v-385h107q97 0 177 57t128 162.5t48 250.5q0 146 -48 250t-128 159.5t-177 55.5h-107v-390h278v-160z" />
    <glyph glyph-name="Dcaron" unicode="&#x10e;" horiz-adv-x="1372" 
d="M116 0v1475h513q198 0 348 -94.5t234.5 -260.5t84.5 -380t-84.5 -381t-234.5 -263t-348 -96h-513zM581 1205h-107v-935h107q97 0 177 57t128 162.5t48 250.5q0 146 -48 250t-128 159.5t-177 55.5zM285 1775h222l140 -124l140 124h223l-249 -216h-226z" />
    <glyph glyph-name="Dcroat" unicode="&#x110;" horiz-adv-x="1372" 
d="M116 0v1475h513q198 0 348 -94.5t234.5 -260.5t84.5 -380t-84.5 -381t-234.5 -263t-348 -96h-513zM581 1205h-107v-935h107q97 0 177 57t128 162.5t48 250.5q0 146 -48 250t-128 159.5t-177 55.5zM14 656v159h739v-159h-739z" />
    <glyph glyph-name="uni1E0C" unicode="&#x1e0c;" horiz-adv-x="1372" 
d="M116 0v1475h513q198 0 348 -94.5t234.5 -260.5t84.5 -380t-84.5 -381t-234.5 -263t-348 -96h-513zM581 1205h-107v-935h107q97 0 177 57t128 162.5t48 250.5q0 146 -48 250t-128 159.5t-177 55.5zM647 -436q-81 0 -140.5 42t-59.5 120t59.5 119.5t140.5 41.5
q80 0 140.5 -41.5t60.5 -119.5q0 -79 -60.5 -120.5t-140.5 -41.5z" />
    <glyph glyph-name="uni1E0E" unicode="&#x1e0e;" horiz-adv-x="1372" 
d="M116 0v1475h513q198 0 348 -94.5t234.5 -260.5t84.5 -380t-84.5 -381t-234.5 -263t-348 -96h-513zM581 1205h-107v-935h107q97 0 177 57t128 162.5t48 250.5q0 146 -48 250t-128 159.5t-177 55.5zM309 -317v145h677v-145h-677z" />
    <glyph glyph-name="uni01C5" unicode="&#x1c5;" horiz-adv-x="2421" 
d="M116 0v1475h513q198 0 348 -94.5t234.5 -260.5t84.5 -380t-84.5 -381t-234.5 -263t-348 -96h-513zM581 1205h-107v-935h107q97 0 177 57t128 162.5t48 250.5q0 146 -48 250t-128 159.5t-177 55.5zM2365 272v-272h-938v256l529 535h-510v271h906v-256l-525 -534h538z
M1539 1475h221l139 -163l141 163h222l-249 -281h-224z" />
    <glyph glyph-name="E" unicode="E" horiz-adv-x="1159" 
d="M1043 270v-270h-927v1475h927v-270h-568v-330h457v-270h-457v-335h568z" />
    <glyph glyph-name="Eacute" unicode="&#xc9;" horiz-adv-x="1159" 
d="M1043 270v-270h-927v1475h927v-270h-568v-330h457v-270h-457v-335h568zM412 1561l270 215h274l-308 -215h-236z" />
    <glyph glyph-name="Ebreve" unicode="&#x114;" horiz-adv-x="1159" 
d="M1043 270v-270h-927v1475h927v-270h-568v-330h457v-270h-457v-335h568zM288 1759h206q0 -37 26 -63t74 -26q49 0 74.5 26t25.5 63h207q0 -101 -87 -162t-220 -61t-219.5 61t-86.5 162z" />
    <glyph glyph-name="Ecaron" unicode="&#x11a;" horiz-adv-x="1159" 
d="M1043 270v-270h-927v1475h927v-270h-568v-330h457v-270h-457v-335h568zM231 1775h222l140 -124l140 124h223l-249 -216h-226z" />
    <glyph glyph-name="uni0228" unicode="&#x228;" horiz-adv-x="1159" 
d="M1043 270v-270h-927v1475h927v-270h-568v-330h457v-270h-457v-335h568zM713 -65q36 0 73 -14.5t62 -47.5t25 -88q0 -69 -43 -113t-110 -64.5t-140 -20.5q-64 0 -133 16.5t-98 36.5l68 127q21 -12 72 -31t103 -19q55 0 91 19t36 56q0 29 -18 42t-43 13q-24 0 -47.5 -8
t-34.5 -25l-132 36l73 150h149l-43 -86q33 21 90 21z" />
    <glyph glyph-name="uni1E1C" unicode="&#x1e1c;" horiz-adv-x="1159" 
d="M1043 270v-270h-927v1475h927v-270h-568v-330h457v-270h-457v-335h568zM713 -65q36 0 73 -14.5t62 -47.5t25 -88q0 -69 -43 -113t-110 -64.5t-140 -20.5q-64 0 -133 16.5t-98 36.5l68 127q21 -12 72 -31t103 -19q55 0 91 19t36 56q0 29 -18 42t-43 13q-24 0 -47.5 -8
t-34.5 -25l-132 36l73 150h149l-43 -86q33 21 90 21zM288 1759h206q0 -37 26 -63t74 -26q49 0 74.5 26t25.5 63h207q0 -101 -87 -162t-220 -61t-219.5 61t-86.5 162z" />
    <glyph glyph-name="Ecircumflex" unicode="&#xca;" horiz-adv-x="1159" 
d="M1043 270v-270h-927v1475h927v-270h-568v-330h457v-270h-457v-335h568zM231 1559l250 216h226l249 -216h-223l-140 125l-140 -125h-222z" />
    <glyph glyph-name="uni1EBE" unicode="&#x1ebe;" horiz-adv-x="1159" 
d="M1043 270v-270h-927v1475h927v-270h-568v-330h457v-270h-457v-335h568zM833 1721l226 215h221l-239 -215h-208zM231 1559l250 216h226l249 -216h-223l-141 125l-139 -125h-222z" />
    <glyph glyph-name="uni1EC6" unicode="&#x1ec6;" horiz-adv-x="1159" 
d="M1043 270v-270h-927v1475h927v-270h-568v-330h457v-270h-457v-335h568zM597 -436q-81 0 -140.5 42t-59.5 120t59.5 119.5t140.5 41.5q80 0 140.5 -41.5t60.5 -119.5q0 -79 -60.5 -120.5t-140.5 -41.5zM231 1559l250 216h226l249 -216h-223l-140 125l-140 -125h-222z" />
    <glyph glyph-name="uni1EC0" unicode="&#x1ec0;" horiz-adv-x="1159" 
d="M1043 270v-270h-927v1475h927v-270h-568v-330h457v-270h-457v-335h568zM1136 1721h-207l-240 215h222zM234 1559l250 216h226l249 -216h-223l-140 125l-140 -125h-222z" />
    <glyph glyph-name="uni1EC2" unicode="&#x1ec2;" horiz-adv-x="1159" 
d="M1043 270v-270h-927v1475h927v-270h-568v-330h457v-270h-457v-335h568zM727 2017q114 0 212.5 -9t159.5 -39t61 -94q0 -83 -85.5 -122t-215.5 -39l-35 91q30 2 69.5 7t68.5 16.5t29 32.5q0 30 -68.5 39t-195.5 9v108zM232 1559l250 216h226l249 -216h-223l-140 125
l-140 -125h-222z" />
    <glyph glyph-name="uni1EC4" unicode="&#x1ec4;" horiz-adv-x="1159" 
d="M1043 270v-270h-927v1475h927v-270h-568v-330h457v-270h-457v-335h568zM231 1559l250 216h226l249 -216h-223l-140 125l-140 -125h-222zM949 2094q0 -58 -23 -115.5t-69.5 -95.5t-118.5 -38q-57 0 -93.5 22t-58.5 42q-22 21 -42 35.5t-46 14.5q-64 0 -65 -95h-177
q0 59 24 116.5t72.5 96t122.5 38.5q51 0 88 -22t59 -42q23 -21 45.5 -35.5t46.5 -14.5q58 0 59 93h176z" />
    <glyph glyph-name="uni0204" unicode="&#x204;" horiz-adv-x="1159" 
d="M1043 270v-270h-927v1475h927v-270h-568v-330h457v-270h-457v-335h568zM859 1560h-187l-209 217h211zM519 1560h-187l-236 217h212z" />
    <glyph glyph-name="Edieresis" unicode="&#xcb;" horiz-adv-x="1159" 
d="M1043 270v-270h-927v1475h927v-270h-568v-330h457v-270h-457v-335h568zM337 1536q-73 0 -128 38.5t-55 109.5t55 109t128 38t128.5 -38t55.5 -109q0 -72 -55.5 -110t-128.5 -38zM851 1536q-73 0 -128 38.5t-55 109.5t55 109t128 38t128 -38t55 -109q0 -72 -55 -110
t-128 -38z" />
    <glyph glyph-name="Edotaccent" unicode="&#x116;" horiz-adv-x="1159" 
d="M1043 270v-270h-927v1475h927v-270h-568v-330h457v-270h-457v-335h568zM596 1560q-80 0 -140 42t-60 119q0 78 60 119.5t140 41.5q81 0 141 -41.5t60 -119.5t-60 -119.5t-141 -41.5z" />
    <glyph glyph-name="uni1EB8" unicode="&#x1eb8;" horiz-adv-x="1159" 
d="M1043 270v-270h-927v1475h927v-270h-568v-330h457v-270h-457v-335h568zM597 -436q-81 0 -140.5 42t-59.5 120t59.5 119.5t140.5 41.5q80 0 140.5 -41.5t60.5 -119.5q0 -79 -60.5 -120.5t-140.5 -41.5z" />
    <glyph glyph-name="Egrave" unicode="&#xc8;" horiz-adv-x="1159" 
d="M1043 270v-270h-927v1475h927v-270h-568v-330h457v-270h-457v-335h568zM775 1561h-237l-307 215h274z" />
    <glyph glyph-name="uni1EBA" unicode="&#x1eba;" horiz-adv-x="1159" 
d="M1043 270v-270h-927v1475h927v-270h-568v-330h457v-270h-457v-335h568zM376 1820q113 0 211.5 -8.5t159.5 -39t61 -94.5q0 -83 -85.5 -121.5t-215.5 -38.5l-35 90q30 2 69.5 7.5t69 16.5t29.5 32q0 30 -69 39t-195 9v108z" />
    <glyph glyph-name="uni0206" unicode="&#x206;" horiz-adv-x="1159" 
d="M1043 270v-270h-927v1475h927v-270h-568v-330h457v-270h-457v-335h568zM288 1557q0 102 86.5 162.5t219.5 60.5t220 -60.5t87 -162.5h-207q0 37 -25.5 63t-74.5 26q-48 0 -74 -26t-26 -63h-206z" />
    <glyph glyph-name="Emacron" unicode="&#x112;" horiz-adv-x="1159" 
d="M1043 270v-270h-927v1475h927v-270h-568v-330h457v-270h-457v-335h568zM264 1609v146h658v-146h-658z" />
    <glyph glyph-name="uni1E16" unicode="&#x1e16;" horiz-adv-x="1159" 
d="M1043 270v-270h-927v1475h927v-270h-568v-330h457v-270h-457v-335h568zM264 1609v146h658v-146h-658zM412 1841l270 215h274l-308 -215h-236z" />
    <glyph glyph-name="uni1E14" unicode="&#x1e14;" horiz-adv-x="1159" 
d="M1043 270v-270h-927v1475h927v-270h-568v-330h457v-270h-457v-335h568zM264 1609v146h658v-146h-658zM775 1841h-237l-307 215h274z" />
    <glyph glyph-name="Eogonek" unicode="&#x118;" horiz-adv-x="1159" 
d="M1043 270v-270h-927v1475h927v-270h-568v-330h457v-270h-457v-335h568zM1043 -283v-168q-20 -2 -44 -3.5t-50 -1.5q-71 0 -135 16t-104.5 53t-40.5 100q0 64 38 121.5t86 100.5t80 65h170q-27 -22 -67 -64.5t-71 -87.5t-31 -77q0 -36 28.5 -48t66.5 -12q19 0 38.5 2
t35.5 4z" />
    <glyph glyph-name="uni1EBC" unicode="&#x1ebc;" horiz-adv-x="1159" 
d="M1043 270v-270h-927v1475h927v-270h-568v-330h457v-270h-457v-335h568zM949 1794q0 -58 -23 -115.5t-69.5 -95.5t-118.5 -38q-57 0 -93.5 22t-58.5 42q-22 21 -42 35.5t-46 14.5q-64 0 -65 -95h-177q0 59 24 116.5t72.5 96t122.5 38.5q51 0 88 -22t59 -42
q23 -21 45.5 -35.5t46.5 -14.5q58 0 59 93h176z" />
    <glyph glyph-name="uni01B7" unicode="&#x1b7;" horiz-adv-x="1284" 
d="M631 -25q-161 0 -266.5 42t-166 114t-85.5 162.5t-25 188.5v4h356v-4q0 -138 52 -187t139 -49q75 0 123.5 40t48.5 149q0 110 -60 156.5t-226 46.5h-118l353 567h-608v270h963v-249l-257 -394q142 0 226 -99.5t84 -265.5q0 -139 -55.5 -250.5t-173.5 -176.5t-304 -65z
" />
    <glyph glyph-name="uni01EE" unicode="&#x1ee;" horiz-adv-x="1284" 
d="M631 -25q-161 0 -266.5 42t-166 114t-85.5 162.5t-25 188.5v4h356v-4q0 -138 52 -187t139 -49q75 0 123.5 40t48.5 149q0 110 -60 156.5t-226 46.5h-118l353 567h-608v270h963v-249l-257 -394q142 0 226 -99.5t84 -265.5q0 -139 -55.5 -250.5t-173.5 -176.5t-304 -65z
M280 1775h222l140 -124l140 124h223l-249 -216h-226z" />
    <glyph glyph-name="F" unicode="F" horiz-adv-x="1148" 
d="M968 582h-496v-582h-356v1475h941v-270h-585v-352h496v-271z" />
    <glyph glyph-name="G" unicode="G" horiz-adv-x="1459" 
d="M719 -25q-179 0 -324.5 86.5t-232 255t-86.5 416.5q0 247 91.5 418t246 259.5t344.5 88.5q160 0 271.5 -51t180.5 -129.5t101 -165.5t32 -159v-12h-347v12q0 57 -28 108t-81 83.5t-129 32.5q-77 0 -150.5 -44.5t-121 -150t-47.5 -290.5q0 -187 46 -291t118 -145.5
t149 -41.5q81 0 137.5 27t89.5 66.5t42 78.5v76h-269v252h585v-755h-176l-34 163q-10 -28 -54 -72.5t-130.5 -80t-223.5 -35.5z" />
    <glyph glyph-name="Gbreve" unicode="&#x11e;" horiz-adv-x="1459" 
d="M719 -25q-179 0 -324.5 86.5t-232 255t-86.5 416.5q0 247 91.5 418t246 259.5t344.5 88.5q160 0 271.5 -51t180.5 -129.5t101 -165.5t32 -159v-12h-347v12q0 57 -28 108t-81 83.5t-129 32.5q-77 0 -150.5 -44.5t-121 -150t-47.5 -290.5q0 -187 46 -291t118 -145.5
t149 -41.5q81 0 137.5 27t89.5 66.5t42 78.5v76h-269v252h585v-755h-176l-34 163q-10 -28 -54 -72.5t-130.5 -80t-223.5 -35.5zM442 1759h206q0 -37 26 -63t74 -26q49 0 74.5 26t25.5 63h207q0 -101 -87 -162t-220 -61t-219.5 61t-86.5 162z" />
    <glyph glyph-name="Gcaron" unicode="&#x1e6;" horiz-adv-x="1459" 
d="M719 -25q-179 0 -324.5 86.5t-232 255t-86.5 416.5q0 247 91.5 418t246 259.5t344.5 88.5q160 0 271.5 -51t180.5 -129.5t101 -165.5t32 -159v-12h-347v12q0 57 -28 108t-81 83.5t-129 32.5q-77 0 -150.5 -44.5t-121 -150t-47.5 -290.5q0 -187 46 -291t118 -145.5
t149 -41.5q81 0 137.5 27t89.5 66.5t42 78.5v76h-269v252h585v-755h-176l-34 163q-10 -28 -54 -72.5t-130.5 -80t-223.5 -35.5zM385 1775h222l140 -124l140 124h223l-249 -216h-226z" />
    <glyph glyph-name="Gcircumflex" unicode="&#x11c;" horiz-adv-x="1459" 
d="M719 -25q-179 0 -324.5 86.5t-232 255t-86.5 416.5q0 247 91.5 418t246 259.5t344.5 88.5q160 0 271.5 -51t180.5 -129.5t101 -165.5t32 -159v-12h-347v12q0 57 -28 108t-81 83.5t-129 32.5q-77 0 -150.5 -44.5t-121 -150t-47.5 -290.5q0 -187 46 -291t118 -145.5
t149 -41.5q81 0 137.5 27t89.5 66.5t42 78.5v76h-269v252h585v-755h-176l-34 163q-10 -28 -54 -72.5t-130.5 -80t-223.5 -35.5zM385 1559l250 216h226l249 -216h-223l-140 125l-140 -125h-222z" />
    <glyph glyph-name="uni0122" unicode="&#x122;" horiz-adv-x="1459" 
d="M719 -25q-179 0 -324.5 86.5t-232 255t-86.5 416.5q0 247 91.5 418t246 259.5t344.5 88.5q160 0 271.5 -51t180.5 -129.5t101 -165.5t32 -159v-12h-347v12q0 57 -28 108t-81 83.5t-129 32.5q-77 0 -150.5 -44.5t-121 -150t-47.5 -290.5q0 -187 46 -291t118 -145.5
t149 -41.5q81 0 137.5 27t89.5 66.5t42 78.5v76h-269v252h585v-755h-176l-34 163q-10 -28 -54 -72.5t-130.5 -80t-223.5 -35.5zM713 -276q-50 0 -79 26t-29 71q0 57 42.5 80.5t90.5 23.5q43 0 88.5 -29t45.5 -101q0 -79 -35.5 -130.5t-84.5 -81.5t-88 -44l-20 53
q31 10 65 30.5t58 52.5t24 78q-9 -14 -31.5 -21.5t-46.5 -7.5z" />
    <glyph glyph-name="Gdotaccent" unicode="&#x120;" horiz-adv-x="1459" 
d="M719 -25q-179 0 -324.5 86.5t-232 255t-86.5 416.5q0 247 91.5 418t246 259.5t344.5 88.5q160 0 271.5 -51t180.5 -129.5t101 -165.5t32 -159v-12h-347v12q0 57 -28 108t-81 83.5t-129 32.5q-77 0 -150.5 -44.5t-121 -150t-47.5 -290.5q0 -187 46 -291t118 -145.5
t149 -41.5q81 0 137.5 27t89.5 66.5t42 78.5v76h-269v252h585v-755h-176l-34 163q-10 -28 -54 -72.5t-130.5 -80t-223.5 -35.5zM750 1560q-80 0 -140 42t-60 119q0 78 60 119.5t140 41.5q81 0 141 -41.5t60 -119.5t-60 -119.5t-141 -41.5z" />
    <glyph glyph-name="uni1E20" unicode="&#x1e20;" horiz-adv-x="1459" 
d="M719 -25q-179 0 -324.5 86.5t-232 255t-86.5 416.5q0 247 91.5 418t246 259.5t344.5 88.5q160 0 271.5 -51t180.5 -129.5t101 -165.5t32 -159v-12h-347v12q0 57 -28 108t-81 83.5t-129 32.5q-77 0 -150.5 -44.5t-121 -150t-47.5 -290.5q0 -187 46 -291t118 -145.5
t149 -41.5q81 0 137.5 27t89.5 66.5t42 78.5v76h-269v252h585v-755h-176l-34 163q-10 -28 -54 -72.5t-130.5 -80t-223.5 -35.5zM418 1609v146h658v-146h-658z" />
    <glyph glyph-name="uni01E4" unicode="&#x1e4;" horiz-adv-x="1427" 
d="M703 -25q-183 0 -324.5 86.5t-222 255t-80.5 416.5q0 247 89 418t240 259.5t337 88.5q160 0 271.5 -52t180.5 -132.5t101 -168.5t32 -160v-12h-347v12q0 57 -28 110t-81 87.5t-129 34.5q-77 0 -147.5 -44.5t-115 -150t-44.5 -290.5q0 -195 43 -298t112 -141.5t146 -38.5
q75 0 129.5 23.5t87.5 57.5h-218v189h270v58h-269v220h585v-278h109v-189h-109v-336h-176l-34 163q-10 -28 -54 -72.5t-130.5 -80t-223.5 -35.5z" />
    <glyph glyph-name="H" unicode="H" horiz-adv-x="1440" 
d="M1324 1475v-1475h-358v599h-492v-599h-358v1475h358v-606h492v606h358z" />
    <glyph glyph-name="Hbar" unicode="&#x126;" horiz-adv-x="1440" 
d="M35 1083v169h81v223h358v-223h492v223h358v-223h79v-169h-79v-1083h-358v599h-492v-599h-358v1083h-81zM474 869h492v214h-492v-214z" />
    <glyph glyph-name="uni1E2A" unicode="&#x1e2a;" horiz-adv-x="1440" 
d="M1324 1475v-1475h-358v599h-492v-599h-358v1475h358v-606h492v606h358zM415 -118h206q0 -60 26 -93.5t74 -33.5q49 0 75 33.5t26 93.5h206q0 -130 -87 -195.5t-220 -65.5t-219.5 65.5t-86.5 195.5z" />
    <glyph glyph-name="Hcircumflex" unicode="&#x124;" horiz-adv-x="1440" 
d="M1324 1475v-1475h-358v599h-492v-599h-358v1475h358v-606h492v606h358zM358 1559l250 216h226l249 -216h-223l-140 125l-140 -125h-222z" />
    <glyph glyph-name="uni1E24" unicode="&#x1e24;" horiz-adv-x="1440" 
d="M1324 1475v-1475h-358v599h-492v-599h-358v1475h358v-606h492v606h358zM721 -436q-81 0 -140.5 42t-59.5 120t59.5 119.5t140.5 41.5q80 0 140.5 -41.5t60.5 -119.5q0 -79 -60.5 -120.5t-140.5 -41.5z" />
    <glyph glyph-name="I" unicode="I" horiz-adv-x="579" 
d="M114 0v1475h352v-1475h-352z" />
    <glyph glyph-name="I.ss01" horiz-adv-x="1131" 
d="M88 0v270h299v935h-299v270h956v-270h-300v-935h300v-270h-956z" />
    <glyph glyph-name="Iacute" unicode="&#xcd;" horiz-adv-x="579" 
d="M114 0v1475h352v-1475h-352zM109 1561l270 215h274l-308 -215h-236z" />
    <glyph glyph-name="Iacute.ss01" horiz-adv-x="1131" 
d="M88 0v270h299v935h-299v270h956v-270h-300v-935h300v-270h-956zM384 1561l270 215h274l-308 -215h-236z" />
    <glyph glyph-name="Ibreve" unicode="&#x12c;" horiz-adv-x="579" 
d="M114 0v1475h352v-1475h-352zM-15 1759h206q0 -37 26 -63t74 -26q49 0 74.5 26t25.5 63h207q0 -101 -87 -162t-220 -61t-219.5 61t-86.5 162z" />
    <glyph glyph-name="Ibreve.ss01" horiz-adv-x="1131" 
d="M88 0v270h299v935h-299v270h956v-270h-300v-935h300v-270h-956zM260 1759h206q0 -37 26 -63t74 -26q49 0 74.5 26t25.5 63h207q0 -101 -87 -162t-220 -61t-219.5 61t-86.5 162z" />
    <glyph glyph-name="uni01CF" unicode="&#x1cf;" horiz-adv-x="579" 
d="M114 0v1475h352v-1475h-352zM-72 1775h222l140 -124l140 124h223l-249 -216h-226z" />
    <glyph glyph-name="uni01CF.ss01" horiz-adv-x="1131" 
d="M88 0v270h299v935h-299v270h956v-270h-300v-935h300v-270h-956zM203 1775h222l140 -124l140 124h223l-249 -216h-226z" />
    <glyph glyph-name="Icircumflex" unicode="&#xce;" horiz-adv-x="579" 
d="M114 0v1475h352v-1475h-352zM-72 1559l250 216h226l249 -216h-223l-140 125l-140 -125h-222z" />
    <glyph glyph-name="Icircumflex.ss01" horiz-adv-x="1131" 
d="M88 0v270h299v935h-299v270h956v-270h-300v-935h300v-270h-956zM203 1559l250 216h226l249 -216h-223l-140 125l-140 -125h-222z" />
    <glyph glyph-name="uni0208" unicode="&#x208;" horiz-adv-x="579" 
d="M114 0v1475h352v-1475h-352zM556 1560h-187l-209 217h211zM216 1560h-187l-236 217h212z" />
    <glyph glyph-name="uni0208.ss01" horiz-adv-x="1131" 
d="M88 0v270h299v935h-299v270h956v-270h-300v-935h300v-270h-956zM831 1560h-187l-209 217h211zM491 1560h-187l-236 217h212z" />
    <glyph glyph-name="Idieresis" unicode="&#xcf;" horiz-adv-x="579" 
d="M114 0v1475h352v-1475h-352zM90 1542q-73 0 -128 38t-55 109t55 109t128 38t128 -38t55 -109q0 -72 -55 -109.5t-128 -37.5zM496 1542q-73 0 -128 38t-55 109t55 109t128 38t128 -38t55 -109q0 -72 -55 -109.5t-128 -37.5z" />
    <glyph glyph-name="Idieresis.ss01" horiz-adv-x="1131" 
d="M88 0v270h299v935h-299v270h956v-270h-300v-935h300v-270h-956zM365 1542q-73 0 -128 38t-55 109t55 109t128 38t128 -38t55 -109q0 -72 -55 -109.5t-128 -37.5zM771 1542q-73 0 -128 38t-55 109t55 109t128 38t128 -38t55 -109q0 -72 -55 -109.5t-128 -37.5z" />
    <glyph glyph-name="uni1E2E" unicode="&#x1e2e;" horiz-adv-x="579" 
d="M114 0v1475h352v-1475h-352zM90 1542q-73 0 -128 38t-55 109t55 109t128 38t128 -38t55 -109q0 -72 -55 -109.5t-128 -37.5zM496 1542q-73 0 -128 38t-55 109t55 109t128 38t128 -38t55 -109q0 -72 -55 -109.5t-128 -37.5zM116 1897l270 215h274l-308 -215h-236z" />
    <glyph glyph-name="uni1E2E.ss01" horiz-adv-x="1131" 
d="M88 0v270h299v935h-299v270h956v-270h-300v-935h300v-270h-956zM365 1542q-73 0 -128 38t-55 109t55 109t128 38t128 -38t55 -109q0 -72 -55 -109.5t-128 -37.5zM771 1542q-73 0 -128 38t-55 109t55 109t128 38t128 -38t55 -109q0 -72 -55 -109.5t-128 -37.5zM391 1897
l270 215h274l-308 -215h-236z" />
    <glyph glyph-name="Idotaccent" unicode="&#x130;" horiz-adv-x="579" 
d="M114 0v1475h352v-1475h-352zM293 1560q-80 0 -140 42t-60 119q0 78 60 119.5t140 41.5q81 0 141 -41.5t60 -119.5t-60 -119.5t-141 -41.5z" />
    <glyph glyph-name="Idotaccent.ss01" horiz-adv-x="1131" 
d="M88 0v270h299v935h-299v270h956v-270h-300v-935h300v-270h-956zM568 1560q-80 0 -140 42t-60 119q0 78 60 119.5t140 41.5q81 0 141 -41.5t60 -119.5t-60 -119.5t-141 -41.5z" />
    <glyph glyph-name="uni1ECA" unicode="&#x1eca;" horiz-adv-x="579" 
d="M114 0v1475h352v-1475h-352zM290 -436q-81 0 -140.5 42t-59.5 120t59.5 119.5t140.5 41.5q80 0 140.5 -41.5t60.5 -119.5q0 -79 -60.5 -120.5t-140.5 -41.5z" />
    <glyph glyph-name="uni1ECA.ss01" horiz-adv-x="1131" 
d="M88 0v270h299v935h-299v270h956v-270h-300v-935h300v-270h-956zM566 -436q-81 0 -140.5 42t-59.5 120t59.5 119.5t140.5 41.5q80 0 140.5 -41.5t60.5 -119.5q0 -79 -60.5 -120.5t-140.5 -41.5z" />
    <glyph glyph-name="Igrave" unicode="&#xcc;" horiz-adv-x="579" 
d="M114 0v1475h352v-1475h-352zM472 1561h-237l-307 215h274z" />
    <glyph glyph-name="Igrave.ss01" horiz-adv-x="1131" 
d="M88 0v270h299v935h-299v270h956v-270h-300v-935h300v-270h-956zM747 1561h-237l-307 215h274z" />
    <glyph glyph-name="uni1EC8" unicode="&#x1ec8;" horiz-adv-x="579" 
d="M114 0v1475h352v-1475h-352zM73 1820q113 0 211.5 -8.5t159.5 -39t61 -94.5q0 -83 -85.5 -121.5t-215.5 -38.5l-35 90q30 2 69.5 7.5t69 16.5t29.5 32q0 30 -69 39t-195 9v108z" />
    <glyph glyph-name="uni1EC8.ss01" horiz-adv-x="1131" 
d="M88 0v270h299v935h-299v270h956v-270h-300v-935h300v-270h-956zM349 1820q113 0 211.5 -8.5t159.5 -39t61 -94.5q0 -83 -85.5 -121.5t-215.5 -38.5l-35 90q30 2 69.5 7.5t69 16.5t29.5 32q0 30 -69 39t-195 9v108z" />
    <glyph glyph-name="uni020A" unicode="&#x20a;" horiz-adv-x="579" 
d="M114 0v1475h352v-1475h-352zM-15 1557q0 102 86.5 162.5t219.5 60.5t220 -60.5t87 -162.5h-207q0 37 -25.5 63t-74.5 26q-48 0 -74 -26t-26 -63h-206z" />
    <glyph glyph-name="uni020A.ss01" horiz-adv-x="1131" 
d="M88 0v270h299v935h-299v270h956v-270h-300v-935h300v-270h-956zM260 1557q0 102 86.5 162.5t219.5 60.5t220 -60.5t87 -162.5h-207q0 37 -25.5 63t-74.5 26q-48 0 -74 -26t-26 -63h-206z" />
    <glyph glyph-name="Imacron" unicode="&#x12a;" horiz-adv-x="579" 
d="M114 0v1475h352v-1475h-352zM-39 1609v146h658v-146h-658z" />
    <glyph glyph-name="Imacron.ss01" horiz-adv-x="1131" 
d="M88 0v270h299v935h-299v270h956v-270h-300v-935h300v-270h-956zM330 1609v146h471v-146h-471z" />
    <glyph glyph-name="Iogonek" unicode="&#x12e;" horiz-adv-x="579" 
d="M114 0v1475h352v-1475h-352zM465 -283v-168q-20 -2 -44 -3.5t-50 -1.5q-71 0 -135 16t-104.5 53t-40.5 100q0 64 38 121.5t86 100.5t80 65h170q-27 -22 -67 -64.5t-71 -87.5t-31 -77q0 -36 28.5 -48t66.5 -12q19 0 38.5 2t35.5 4z" />
    <glyph glyph-name="Iogonek.ss01" horiz-adv-x="1131" 
d="M88 0v270h299v935h-299v270h956v-270h-300v-935h300v-270h-956zM1044 -283v-168q-20 -2 -44 -3.5t-50 -1.5q-71 0 -135 16t-104.5 53t-40.5 100q0 64 38 121.5t86 100.5t80 65h170q-27 -22 -67 -64.5t-71 -87.5t-31 -77q0 -36 28.5 -48t66.5 -12q19 0 38.5 2t35.5 4z" />
    <glyph glyph-name="Itilde" unicode="&#x128;" horiz-adv-x="579" 
d="M114 0v1475h352v-1475h-352zM646 1794q0 -58 -23 -115.5t-69.5 -95.5t-118.5 -38q-57 0 -93.5 22t-58.5 42q-22 21 -42 35.5t-46 14.5q-64 0 -65 -95h-177q0 59 24 116.5t72.5 96t122.5 38.5q51 0 88 -22t59 -42q23 -21 45.5 -35.5t46.5 -14.5q58 0 59 93h176z" />
    <glyph glyph-name="Itilde.ss01" horiz-adv-x="1131" 
d="M88 0v270h299v935h-299v270h956v-270h-300v-935h300v-270h-956zM921 1794q0 -58 -23 -115.5t-69.5 -95.5t-118.5 -38q-57 0 -93.5 22t-58.5 42q-22 21 -42 35.5t-46 14.5q-64 0 -65 -95h-177q0 59 24 116.5t72.5 96t122.5 38.5q51 0 88 -22t59 -42q23 -21 45.5 -35.5
t46.5 -14.5q58 0 59 93h176z" />
    <glyph glyph-name="J" unicode="J" horiz-adv-x="1194" 
d="M566 -25q-191 0 -304.5 64.5t-163.5 179.5t-50 267v72h355v-40q0 -65 12 -125t47 -99t104 -39q68 0 101.5 39.5t44 105t10.5 140.5v935h356v-986q0 -103 -23.5 -196t-81 -164.5t-157 -112.5t-250.5 -41z" />
    <glyph glyph-name="Jcircumflex" unicode="&#x134;" horiz-adv-x="1194" 
d="M566 -25q-191 0 -304.5 64.5t-163.5 179.5t-50 267v72h355v-40q0 -65 12 -125t47 -99t104 -39q68 0 101.5 39.5t44 105t10.5 140.5v935h356v-986q0 -103 -23.5 -196t-81 -164.5t-157 -112.5t-250.5 -41zM534 1559l250 216h226l249 -216h-223l-140 125l-140 -125h-222z
" />
    <glyph glyph-name="K" unicode="K" horiz-adv-x="1371" 
d="M940 0l-323 573l-144 -196v-377h-357v1475h357v-628l452 628h376l-476 -640l504 -835h-389z" />
    <glyph glyph-name="uni01E8" unicode="&#x1e8;" horiz-adv-x="1371" 
d="M940 0l-323 573l-144 -196v-377h-357v1475h357v-628l452 628h376l-476 -640l504 -835h-389zM326 1775h222l140 -124l140 124h223l-249 -216h-226z" />
    <glyph glyph-name="uni0136" unicode="&#x136;" horiz-adv-x="1371" 
d="M940 0l-323 573l-144 -196v-377h-357v1475h357v-628l452 628h376l-476 -640l504 -835h-389zM660 -276q-50 0 -79 26t-29 71q0 57 42.5 80.5t90.5 23.5q43 0 88.5 -29t45.5 -101q0 -79 -35.5 -130.5t-84.5 -81.5t-88 -44l-20 53q31 10 65 30.5t58 52.5t24 78
q-9 -14 -31.5 -21.5t-46.5 -7.5z" />
    <glyph glyph-name="L" unicode="L" horiz-adv-x="1080" 
d="M116 0v1475h358v-1188h537v-287h-895z" />
    <glyph glyph-name="uni01C7" unicode="&#x1c7;" horiz-adv-x="2264" 
d="M116 0v1475h358v-1188h537v-287h-895zM1636 -25q-191 0 -304.5 64.5t-163.5 179.5t-50 267v72h355v-40q0 -65 12 -125t47 -99t104 -39q68 0 101.5 39.5t44 105t10.5 140.5v935h356v-986q0 -103 -23.5 -196t-81 -164.5t-157 -112.5t-250.5 -41z" />
    <glyph glyph-name="Lacute" unicode="&#x139;" horiz-adv-x="1080" 
d="M116 0v1475h358v-1188h537v-287h-895zM110 1561l270 215h274l-308 -215h-236z" />
    <glyph glyph-name="Lcaron" unicode="&#x13d;" horiz-adv-x="1080" 
d="M116 0v1475h358v-1188h537v-287h-895zM945 1475q0 -92 -12 -180t-26 -155t-22 -96h-162q8 30 16.5 96t15 153.5t6.5 181.5h184z" />
    <glyph glyph-name="uni013B" unicode="&#x13b;" horiz-adv-x="1080" 
d="M116 0v1475h358v-1188h537v-287h-895zM552 -276q-50 0 -79 26t-29 71q0 57 42.5 80.5t90.5 23.5q43 0 88.5 -29t45.5 -101q0 -79 -35.5 -130.5t-84.5 -81.5t-88 -44l-20 53q31 10 65 30.5t58 52.5t24 78q-9 -14 -31.5 -21.5t-46.5 -7.5z" />
    <glyph glyph-name="Ldot" unicode="&#x13f;" horiz-adv-x="1080" 
d="M116 0v1475h358v-1188h537v-287h-895zM835 633q-75 0 -127.5 52.5t-52.5 128.5q0 74 52.5 127t127.5 53t127.5 -53t52.5 -127q0 -76 -52.5 -128.5t-127.5 -52.5z" />
    <glyph glyph-name="uni1E36" unicode="&#x1e36;" horiz-adv-x="1080" 
d="M116 0v1475h358v-1188h537v-287h-895zM578 -436q-81 0 -140.5 42t-59.5 120t59.5 119.5t140.5 41.5q80 0 140.5 -41.5t60.5 -119.5q0 -79 -60.5 -120.5t-140.5 -41.5z" />
    <glyph glyph-name="uni01C8" unicode="&#x1c8;" horiz-adv-x="1630" 
d="M116 0v1475h358v-1188h537v-287h-895zM1362 1211q-81 0 -141 42t-60 119q0 78 60 119.5t141 41.5q80 0 140 -41.5t60 -119.5q0 -77 -60 -119t-140 -42zM1044 -460q-30 0 -58.5 1t-47.5 3v262q19 -3 47 -5.5t59 -2.5q84 0 110.5 40t26.5 79v1145h355v-1153
q0 -65 -17.5 -130.5t-68.5 -119.5t-148.5 -86.5t-257.5 -32.5z" />
    <glyph glyph-name="uni1E3A" unicode="&#x1e3a;" horiz-adv-x="1080" 
d="M116 0v1475h358v-1188h537v-287h-895zM240 -317v145h677v-145h-677z" />
    <glyph glyph-name="Lslash" unicode="&#x141;" horiz-adv-x="1209" 
d="M245 0v444l-148 -72l-116 245l264 130v728h357v-553l216 106l117 -245l-333 -164v-332h537v-287h-894z" />
    <glyph glyph-name="M" unicode="M" horiz-adv-x="1903" 
d="M1174 1475h602v-1475h-339v1240l-252 -1240h-460l-258 1243v-1243h-339v1475h602l220 -1232z" />
    <glyph glyph-name="uni1E42" unicode="&#x1e42;" horiz-adv-x="1903" 
d="M1174 1475h602v-1475h-339v1240l-252 -1240h-460l-258 1243v-1243h-339v1475h602l220 -1232zM955 -436q-81 0 -140.5 42t-59.5 120t59.5 119.5t140.5 41.5q80 0 140.5 -41.5t60.5 -119.5q0 -79 -60.5 -120.5t-140.5 -41.5z" />
    <glyph glyph-name="N" unicode="N" horiz-adv-x="1514" 
d="M464 0h-348v1475h549l386 -1163v1163h347v-1475h-553l-381 1146v-1146z" />
    <glyph glyph-name="uni01CA" unicode="&#x1ca;" horiz-adv-x="2709" 
d="M464 0h-348v1475h549l386 -1163v1163h347v-1475h-553l-381 1146v-1146zM2080 -25q-191 0 -304.5 64.5t-163.5 179.5t-50 267v72h355v-40q0 -65 12 -125t47 -99t104 -39q68 0 101.5 39.5t44 105t10.5 140.5v935h356v-986q0 -103 -23.5 -196t-81 -164.5t-157 -112.5
t-250.5 -41z" />
    <glyph glyph-name="Nacute" unicode="&#x143;" horiz-adv-x="1514" 
d="M464 0h-348v1475h549l386 -1163v1163h347v-1475h-553l-381 1146v-1146zM596 1561l270 215h274l-308 -215h-236z" />
    <glyph glyph-name="Ncaron" unicode="&#x147;" horiz-adv-x="1514" 
d="M464 0h-348v1475h549l386 -1163v1163h347v-1475h-553l-381 1146v-1146zM415 1775h222l140 -124l140 124h223l-249 -216h-226z" />
    <glyph glyph-name="uni0145" unicode="&#x145;" horiz-adv-x="1514" 
d="M464 0h-348v1475h549l386 -1163v1163h347v-1475h-553l-381 1146v-1146zM751 -276q-50 0 -79 26t-29 71q0 57 42.5 80.5t90.5 23.5q43 0 88.5 -29t45.5 -101q0 -79 -35.5 -130.5t-84.5 -81.5t-88 -44l-20 53q31 10 65 30.5t58 52.5t24 78q-9 -14 -31.5 -21.5t-46.5 -7.5z
" />
    <glyph glyph-name="uni1E44" unicode="&#x1e44;" horiz-adv-x="1514" 
d="M464 0h-348v1475h549l386 -1163v1163h347v-1475h-553l-381 1146v-1146zM780 1560q-80 0 -140 42t-60 119q0 78 60 119.5t140 41.5q81 0 141 -41.5t60 -119.5t-60 -119.5t-141 -41.5z" />
    <glyph glyph-name="uni1E46" unicode="&#x1e46;" horiz-adv-x="1514" 
d="M464 0h-348v1475h549l386 -1163v1163h347v-1475h-553l-381 1146v-1146zM777 -436q-81 0 -140.5 42t-59.5 120t59.5 119.5t140.5 41.5q80 0 140.5 -41.5t60.5 -119.5q0 -79 -60.5 -120.5t-140.5 -41.5z" />
    <glyph glyph-name="Eng" unicode="&#x14a;" horiz-adv-x="1514" 
d="M805 -456q-33 0 -67.5 4t-45.5 6v257q14 -4 50 -8.5t66 -4.5q98 0 168 38t70 127v37h-213l-369 1151v-1151h-348v1475h563l372 -1164v1164h347v-1504q0 -160 -62.5 -253.5t-194 -133.5t-336.5 -40z" />
    <glyph glyph-name="uni019D" unicode="&#x19d;" horiz-adv-x="1514" 
d="M-64 -465v254q84 4 132 47.5t48 138.5v1500h565l370 -1171v1171h347v-1475h-569l-365 1152v-1177q0 -79 -15.5 -156t-67 -139.5t-157.5 -101.5t-288 -43z" />
    <glyph glyph-name="uni01CB" unicode="&#x1cb;" horiz-adv-x="2030" 
d="M464 0h-348v1475h549l386 -1163v1163h347v-1475h-553l-381 1146v-1146zM1763 1211q-81 0 -141 42t-60 119q0 78 60 119.5t141 41.5q80 0 140 -41.5t60 -119.5q0 -77 -60 -119t-140 -42zM1445 -460q-30 0 -58.5 1t-47.5 3v262q19 -3 47 -5.5t59 -2.5q84 0 110.5 40
t26.5 79v1145h355v-1153q0 -65 -17.5 -130.5t-68.5 -119.5t-148.5 -86.5t-257.5 -32.5z" />
    <glyph glyph-name="uni1E48" unicode="&#x1e48;" horiz-adv-x="1514" 
d="M464 0h-348v1475h549l386 -1163v1163h347v-1475h-553l-381 1146v-1146zM439 -317v145h677v-145h-677z" />
    <glyph glyph-name="Ntilde" unicode="&#xd1;" horiz-adv-x="1514" 
d="M464 0h-348v1475h549l386 -1163v1163h347v-1475h-553l-381 1146v-1146zM1132 1794q0 -58 -23 -115.5t-69.5 -95.5t-118.5 -38q-57 0 -93.5 22t-58.5 42q-22 21 -42 35.5t-46 14.5q-64 0 -65 -95h-177q0 59 24 116.5t72.5 96t122.5 38.5q51 0 88 -22t59 -42
q23 -21 45.5 -35.5t46.5 -14.5q58 0 59 93h176z" />
    <glyph glyph-name="O" unicode="O" horiz-adv-x="1528" 
d="M764 -25q-140 0 -264.5 49.5t-219.5 146.5t-149.5 239.5t-54.5 328.5q0 248 93.5 417.5t249.5 256t345 86.5t345 -86.5t249.5 -256t93.5 -417.5q0 -186 -54.5 -328.5t-150 -239.5t-220 -146.5t-263.5 -49.5zM764 256q84 0 158 45.5t120.5 151.5t46.5 286
q0 181 -46.5 285.5t-121 149t-157.5 44.5t-157.5 -44.5t-121 -149t-46.5 -285.5t46.5 -286.5t121 -151t157.5 -45.5z" />
    <glyph glyph-name="Oacute" unicode="&#xd3;" horiz-adv-x="1528" 
d="M764 -25q-140 0 -264.5 49.5t-219.5 146.5t-149.5 239.5t-54.5 328.5q0 248 93.5 417.5t249.5 256t345 86.5t345 -86.5t249.5 -256t93.5 -417.5q0 -186 -54.5 -328.5t-150 -239.5t-220 -146.5t-263.5 -49.5zM764 256q84 0 158 45.5t120.5 151.5t46.5 286
q0 181 -46.5 285.5t-121 149t-157.5 44.5t-157.5 -44.5t-121 -149t-46.5 -285.5t46.5 -286.5t121 -151t157.5 -45.5zM582 1561l270 215h274l-308 -215h-236z" />
    <glyph glyph-name="Obreve" unicode="&#x14e;" horiz-adv-x="1528" 
d="M764 -25q-140 0 -264.5 49.5t-219.5 146.5t-149.5 239.5t-54.5 328.5q0 248 93.5 417.5t249.5 256t345 86.5t345 -86.5t249.5 -256t93.5 -417.5q0 -186 -54.5 -328.5t-150 -239.5t-220 -146.5t-263.5 -49.5zM764 256q84 0 158 45.5t120.5 151.5t46.5 286
q0 181 -46.5 285.5t-121 149t-157.5 44.5t-157.5 -44.5t-121 -149t-46.5 -285.5t46.5 -286.5t121 -151t157.5 -45.5zM458 1759h206q0 -37 26 -63t74 -26q49 0 74.5 26t25.5 63h207q0 -101 -87 -162t-220 -61t-219.5 61t-86.5 162z" />
    <glyph glyph-name="uni01D1" unicode="&#x1d1;" horiz-adv-x="1528" 
d="M764 -25q-140 0 -264.5 49.5t-219.5 146.5t-149.5 239.5t-54.5 328.5q0 248 93.5 417.5t249.5 256t345 86.5t345 -86.5t249.5 -256t93.5 -417.5q0 -186 -54.5 -328.5t-150 -239.5t-220 -146.5t-263.5 -49.5zM764 256q84 0 158 45.5t120.5 151.5t46.5 286
q0 181 -46.5 285.5t-121 149t-157.5 44.5t-157.5 -44.5t-121 -149t-46.5 -285.5t46.5 -286.5t121 -151t157.5 -45.5zM401 1775h222l140 -124l140 124h223l-249 -216h-226z" />
    <glyph glyph-name="Ocircumflex" unicode="&#xd4;" horiz-adv-x="1528" 
d="M764 -25q-140 0 -264.5 49.5t-219.5 146.5t-149.5 239.5t-54.5 328.5q0 248 93.5 417.5t249.5 256t345 86.5t345 -86.5t249.5 -256t93.5 -417.5q0 -186 -54.5 -328.5t-150 -239.5t-220 -146.5t-263.5 -49.5zM764 256q84 0 158 45.5t120.5 151.5t46.5 286
q0 181 -46.5 285.5t-121 149t-157.5 44.5t-157.5 -44.5t-121 -149t-46.5 -285.5t46.5 -286.5t121 -151t157.5 -45.5zM401 1559l250 216h226l249 -216h-223l-140 125l-140 -125h-222z" />
    <glyph glyph-name="uni1ED0" unicode="&#x1ed0;" horiz-adv-x="1528" 
d="M764 -25q-140 0 -264.5 49.5t-219.5 146.5t-149.5 239.5t-54.5 328.5q0 248 93.5 417.5t249.5 256t345 86.5t345 -86.5t249.5 -256t93.5 -417.5q0 -186 -54.5 -328.5t-150 -239.5t-220 -146.5t-263.5 -49.5zM764 256q84 0 158 45.5t120.5 151.5t46.5 286
q0 181 -46.5 285.5t-121 149t-157.5 44.5t-157.5 -44.5t-121 -149t-46.5 -285.5t46.5 -286.5t121 -151t157.5 -45.5zM1003 1721l226 215h221l-239 -215h-208zM401 1559l250 216h226l249 -216h-223l-141 125l-139 -125h-222z" />
    <glyph glyph-name="uni1ED8" unicode="&#x1ed8;" horiz-adv-x="1528" 
d="M764 -25q-140 0 -264.5 49.5t-219.5 146.5t-149.5 239.5t-54.5 328.5q0 248 93.5 417.5t249.5 256t345 86.5t345 -86.5t249.5 -256t93.5 -417.5q0 -186 -54.5 -328.5t-150 -239.5t-220 -146.5t-263.5 -49.5zM764 256q84 0 158 45.5t120.5 151.5t46.5 286
q0 181 -46.5 285.5t-121 149t-157.5 44.5t-157.5 -44.5t-121 -149t-46.5 -285.5t46.5 -286.5t121 -151t157.5 -45.5zM764 -436q-81 0 -140.5 42t-59.5 120t59.5 119.5t140.5 41.5q80 0 140.5 -41.5t60.5 -119.5q0 -79 -60.5 -120.5t-140.5 -41.5zM401 1559l250 216h226
l249 -216h-223l-140 125l-140 -125h-222z" />
    <glyph glyph-name="uni1ED2" unicode="&#x1ed2;" horiz-adv-x="1528" 
d="M764 -25q-140 0 -264.5 49.5t-219.5 146.5t-149.5 239.5t-54.5 328.5q0 248 93.5 417.5t249.5 256t345 86.5t345 -86.5t249.5 -256t93.5 -417.5q0 -186 -54.5 -328.5t-150 -239.5t-220 -146.5t-263.5 -49.5zM764 256q84 0 158 45.5t120.5 151.5t46.5 286
q0 181 -46.5 285.5t-121 149t-157.5 44.5t-157.5 -44.5t-121 -149t-46.5 -285.5t46.5 -286.5t121 -151t157.5 -45.5zM1307 1721h-207l-240 215h222zM405 1559l250 216h226l249 -216h-223l-140 125l-140 -125h-222z" />
    <glyph glyph-name="uni1ED4" unicode="&#x1ed4;" horiz-adv-x="1528" 
d="M764 -25q-140 0 -264.5 49.5t-219.5 146.5t-149.5 239.5t-54.5 328.5q0 248 93.5 417.5t249.5 256t345 86.5t345 -86.5t249.5 -256t93.5 -417.5q0 -186 -54.5 -328.5t-150 -239.5t-220 -146.5t-263.5 -49.5zM764 256q84 0 158 45.5t120.5 151.5t46.5 286
q0 181 -46.5 285.5t-121 149t-157.5 44.5t-157.5 -44.5t-121 -149t-46.5 -285.5t46.5 -286.5t121 -151t157.5 -45.5zM897 2017q114 0 212.5 -9t159.5 -39t61 -94q0 -83 -85.5 -122t-215.5 -39l-35 91q30 2 69.5 7t68.5 16.5t29 32.5q0 30 -68.5 39t-195.5 9v108zM402 1559
l250 216h226l249 -216h-223l-140 125l-140 -125h-222z" />
    <glyph glyph-name="uni1ED6" unicode="&#x1ed6;" horiz-adv-x="1528" 
d="M764 -25q-140 0 -264.5 49.5t-219.5 146.5t-149.5 239.5t-54.5 328.5q0 248 93.5 417.5t249.5 256t345 86.5t345 -86.5t249.5 -256t93.5 -417.5q0 -186 -54.5 -328.5t-150 -239.5t-220 -146.5t-263.5 -49.5zM764 256q84 0 158 45.5t120.5 151.5t46.5 286
q0 181 -46.5 285.5t-121 149t-157.5 44.5t-157.5 -44.5t-121 -149t-46.5 -285.5t46.5 -286.5t121 -151t157.5 -45.5zM401 1559l250 216h226l249 -216h-223l-140 125l-140 -125h-222zM1119 2094q0 -58 -23 -115.5t-69.5 -95.5t-118.5 -38q-57 0 -93.5 22t-58.5 42
q-22 21 -42 35.5t-46 14.5q-64 0 -65 -95h-177q0 59 24 116.5t72.5 96t122.5 38.5q51 0 88 -22t59 -42q23 -21 45.5 -35.5t46.5 -14.5q58 0 59 93h176z" />
    <glyph glyph-name="uni020C" unicode="&#x20c;" horiz-adv-x="1528" 
d="M764 -25q-140 0 -264.5 49.5t-219.5 146.5t-149.5 239.5t-54.5 328.5q0 248 93.5 417.5t249.5 256t345 86.5t345 -86.5t249.5 -256t93.5 -417.5q0 -186 -54.5 -328.5t-150 -239.5t-220 -146.5t-263.5 -49.5zM764 256q84 0 158 45.5t120.5 151.5t46.5 286
q0 181 -46.5 285.5t-121 149t-157.5 44.5t-157.5 -44.5t-121 -149t-46.5 -285.5t46.5 -286.5t121 -151t157.5 -45.5zM1029 1560h-187l-209 217h211zM689 1560h-187l-236 217h212z" />
    <glyph glyph-name="Odieresis" unicode="&#xd6;" horiz-adv-x="1528" 
d="M764 -25q-140 0 -264.5 49.5t-219.5 146.5t-149.5 239.5t-54.5 328.5q0 248 93.5 417.5t249.5 256t345 86.5t345 -86.5t249.5 -256t93.5 -417.5q0 -186 -54.5 -328.5t-150 -239.5t-220 -146.5t-263.5 -49.5zM764 256q84 0 158 45.5t120.5 151.5t46.5 286
q0 181 -46.5 285.5t-121 149t-157.5 44.5t-157.5 -44.5t-121 -149t-46.5 -285.5t46.5 -286.5t121 -151t157.5 -45.5zM507 1536q-73 0 -128 38.5t-55 109.5t55 109t128 38t128.5 -38t55.5 -109q0 -72 -55.5 -110t-128.5 -38zM1021 1536q-73 0 -128 38.5t-55 109.5t55 109
t128 38t128 -38t55 -109q0 -72 -55 -110t-128 -38z" />
    <glyph glyph-name="uni022A" unicode="&#x22a;" horiz-adv-x="1528" 
d="M764 -25q-140 0 -264.5 49.5t-219.5 146.5t-149.5 239.5t-54.5 328.5q0 248 93.5 417.5t249.5 256t345 86.5t345 -86.5t249.5 -256t93.5 -417.5q0 -186 -54.5 -328.5t-150 -239.5t-220 -146.5t-263.5 -49.5zM764 256q84 0 158 45.5t120.5 151.5t46.5 286
q0 181 -46.5 285.5t-121 149t-157.5 44.5t-157.5 -44.5t-121 -149t-46.5 -285.5t46.5 -286.5t121 -151t157.5 -45.5zM507 1536q-73 0 -128 38.5t-55 109.5t55 109t128 38t128.5 -38t55.5 -109q0 -72 -55.5 -110t-128.5 -38zM1021 1536q-73 0 -128 38.5t-55 109.5t55 109
t128 38t128 -38t55 -109q0 -72 -55 -110t-128 -38zM434 1919v146h658v-146h-658z" />
    <glyph glyph-name="uni0230" unicode="&#x230;" horiz-adv-x="1528" 
d="M764 -25q-140 0 -264.5 49.5t-219.5 146.5t-149.5 239.5t-54.5 328.5q0 248 93.5 417.5t249.5 256t345 86.5t345 -86.5t249.5 -256t93.5 -417.5q0 -186 -54.5 -328.5t-150 -239.5t-220 -146.5t-263.5 -49.5zM764 256q84 0 158 45.5t120.5 151.5t46.5 286
q0 181 -46.5 285.5t-121 149t-157.5 44.5t-157.5 -44.5t-121 -149t-46.5 -285.5t46.5 -286.5t121 -151t157.5 -45.5zM766 1560q-80 0 -140 42t-60 119q0 78 60 119.5t140 41.5q81 0 141 -41.5t60 -119.5t-60 -119.5t-141 -41.5zM437 2016v146h658v-146h-658z" />
    <glyph glyph-name="uni1ECC" unicode="&#x1ecc;" horiz-adv-x="1528" 
d="M764 -25q-140 0 -264.5 49.5t-219.5 146.5t-149.5 239.5t-54.5 328.5q0 248 93.5 417.5t249.5 256t345 86.5t345 -86.5t249.5 -256t93.5 -417.5q0 -186 -54.5 -328.5t-150 -239.5t-220 -146.5t-263.5 -49.5zM764 256q84 0 158 45.5t120.5 151.5t46.5 286
q0 181 -46.5 285.5t-121 149t-157.5 44.5t-157.5 -44.5t-121 -149t-46.5 -285.5t46.5 -286.5t121 -151t157.5 -45.5zM764 -436q-81 0 -140.5 42t-59.5 120t59.5 119.5t140.5 41.5q80 0 140.5 -41.5t60.5 -119.5q0 -79 -60.5 -120.5t-140.5 -41.5z" />
    <glyph glyph-name="Ograve" unicode="&#xd2;" horiz-adv-x="1528" 
d="M764 -25q-140 0 -264.5 49.5t-219.5 146.5t-149.5 239.5t-54.5 328.5q0 248 93.5 417.5t249.5 256t345 86.5t345 -86.5t249.5 -256t93.5 -417.5q0 -186 -54.5 -328.5t-150 -239.5t-220 -146.5t-263.5 -49.5zM764 256q84 0 158 45.5t120.5 151.5t46.5 286
q0 181 -46.5 285.5t-121 149t-157.5 44.5t-157.5 -44.5t-121 -149t-46.5 -285.5t46.5 -286.5t121 -151t157.5 -45.5zM945 1561h-237l-307 215h274z" />
    <glyph glyph-name="uni1ECE" unicode="&#x1ece;" horiz-adv-x="1528" 
d="M764 -25q-140 0 -264.5 49.5t-219.5 146.5t-149.5 239.5t-54.5 328.5q0 248 93.5 417.5t249.5 256t345 86.5t345 -86.5t249.5 -256t93.5 -417.5q0 -186 -54.5 -328.5t-150 -239.5t-220 -146.5t-263.5 -49.5zM764 256q84 0 158 45.5t120.5 151.5t46.5 286
q0 181 -46.5 285.5t-121 149t-157.5 44.5t-157.5 -44.5t-121 -149t-46.5 -285.5t46.5 -286.5t121 -151t157.5 -45.5zM547 1820q113 0 211.5 -8.5t159.5 -39t61 -94.5q0 -83 -85.5 -121.5t-215.5 -38.5l-35 90q30 2 69.5 7.5t69 16.5t29.5 32q0 30 -69 39t-195 9v108z" />
    <glyph glyph-name="Ohorn" unicode="&#x1a0;" horiz-adv-x="1544" 
d="M764 -25q-140 0 -264.5 49.5t-219.5 146.5t-149.5 239.5t-54.5 328.5q0 248 93.5 417.5t249.5 256t345 86.5q221 0 388 -113q70 6 100 72t30 187h218q0 -162 -52.5 -260.5t-146.5 -138.5q70 -94 110.5 -221t40.5 -286q0 -186 -54.5 -328.5t-150 -239.5t-220 -146.5
t-263.5 -49.5zM764 256q84 0 158 45.5t120.5 151.5t46.5 286q0 181 -46.5 285.5t-121 149t-157.5 44.5t-157.5 -44.5t-121 -149t-46.5 -285.5t46.5 -286.5t121 -151t157.5 -45.5z" />
    <glyph glyph-name="uni1EDA" unicode="&#x1eda;" horiz-adv-x="1544" 
d="M764 -25q-140 0 -264.5 49.5t-219.5 146.5t-149.5 239.5t-54.5 328.5q0 248 93.5 417.5t249.5 256t345 86.5q221 0 388 -113q70 6 100 72t30 187h218q0 -162 -52.5 -260.5t-146.5 -138.5q70 -94 110.5 -221t40.5 -286q0 -186 -54.5 -328.5t-150 -239.5t-220 -146.5
t-263.5 -49.5zM764 256q84 0 158 45.5t120.5 151.5t46.5 286q0 181 -46.5 285.5t-121 149t-157.5 44.5t-157.5 -44.5t-121 -149t-46.5 -285.5t46.5 -286.5t121 -151t157.5 -45.5zM582 1561l270 215h274l-308 -215h-236z" />
    <glyph glyph-name="uni1EE2" unicode="&#x1ee2;" horiz-adv-x="1544" 
d="M764 -25q-140 0 -264.5 49.5t-219.5 146.5t-149.5 239.5t-54.5 328.5q0 248 93.5 417.5t249.5 256t345 86.5q221 0 388 -113q70 6 100 72t30 187h218q0 -162 -52.5 -260.5t-146.5 -138.5q70 -94 110.5 -221t40.5 -286q0 -186 -54.5 -328.5t-150 -239.5t-220 -146.5
t-263.5 -49.5zM764 256q84 0 158 45.5t120.5 151.5t46.5 286q0 181 -46.5 285.5t-121 149t-157.5 44.5t-157.5 -44.5t-121 -149t-46.5 -285.5t46.5 -286.5t121 -151t157.5 -45.5zM764 -436q-81 0 -140.5 42t-59.5 120t59.5 119.5t140.5 41.5q80 0 140.5 -41.5t60.5 -119.5
q0 -79 -60.5 -120.5t-140.5 -41.5z" />
    <glyph glyph-name="uni1EDC" unicode="&#x1edc;" horiz-adv-x="1544" 
d="M764 -25q-140 0 -264.5 49.5t-219.5 146.5t-149.5 239.5t-54.5 328.5q0 248 93.5 417.5t249.5 256t345 86.5q221 0 388 -113q70 6 100 72t30 187h218q0 -162 -52.5 -260.5t-146.5 -138.5q70 -94 110.5 -221t40.5 -286q0 -186 -54.5 -328.5t-150 -239.5t-220 -146.5
t-263.5 -49.5zM764 256q84 0 158 45.5t120.5 151.5t46.5 286q0 181 -46.5 285.5t-121 149t-157.5 44.5t-157.5 -44.5t-121 -149t-46.5 -285.5t46.5 -286.5t121 -151t157.5 -45.5zM945 1561h-237l-307 215h274z" />
    <glyph glyph-name="uni1EDE" unicode="&#x1ede;" horiz-adv-x="1544" 
d="M764 -25q-140 0 -264.5 49.5t-219.5 146.5t-149.5 239.5t-54.5 328.5q0 248 93.5 417.5t249.5 256t345 86.5q221 0 388 -113q70 6 100 72t30 187h218q0 -162 -52.5 -260.5t-146.5 -138.5q70 -94 110.5 -221t40.5 -286q0 -186 -54.5 -328.5t-150 -239.5t-220 -146.5
t-263.5 -49.5zM764 256q84 0 158 45.5t120.5 151.5t46.5 286q0 181 -46.5 285.5t-121 149t-157.5 44.5t-157.5 -44.5t-121 -149t-46.5 -285.5t46.5 -286.5t121 -151t157.5 -45.5zM547 1820q113 0 211.5 -8.5t159.5 -39t61 -94.5q0 -83 -85.5 -121.5t-215.5 -38.5l-35 90
q30 2 69.5 7.5t69 16.5t29.5 32q0 30 -69 39t-195 9v108z" />
    <glyph glyph-name="uni1EE0" unicode="&#x1ee0;" horiz-adv-x="1544" 
d="M764 -25q-140 0 -264.5 49.5t-219.5 146.5t-149.5 239.5t-54.5 328.5q0 248 93.5 417.5t249.5 256t345 86.5q221 0 388 -113q70 6 100 72t30 187h218q0 -162 -52.5 -260.5t-146.5 -138.5q70 -94 110.5 -221t40.5 -286q0 -186 -54.5 -328.5t-150 -239.5t-220 -146.5
t-263.5 -49.5zM764 256q84 0 158 45.5t120.5 151.5t46.5 286q0 181 -46.5 285.5t-121 149t-157.5 44.5t-157.5 -44.5t-121 -149t-46.5 -285.5t46.5 -286.5t121 -151t157.5 -45.5zM1119 1794q0 -58 -23 -115.5t-69.5 -95.5t-118.5 -38q-57 0 -93.5 22t-58.5 42
q-22 21 -42 35.5t-46 14.5q-64 0 -65 -95h-177q0 59 24 116.5t72.5 96t122.5 38.5q51 0 88 -22t59 -42q23 -21 45.5 -35.5t46.5 -14.5q58 0 59 93h176z" />
    <glyph glyph-name="Ohungarumlaut" unicode="&#x150;" horiz-adv-x="1528" 
d="M764 -25q-140 0 -264.5 49.5t-219.5 146.5t-149.5 239.5t-54.5 328.5q0 248 93.5 417.5t249.5 256t345 86.5t345 -86.5t249.5 -256t93.5 -417.5q0 -186 -54.5 -328.5t-150 -239.5t-220 -146.5t-263.5 -49.5zM764 256q84 0 158 45.5t120.5 151.5t46.5 286
q0 181 -46.5 285.5t-121 149t-157.5 44.5t-157.5 -44.5t-121 -149t-46.5 -285.5t46.5 -286.5t121 -151t157.5 -45.5zM479 1561l251 215h217l-271 -215h-197zM844 1561l251 215h217l-271 -215h-197z" />
    <glyph glyph-name="uni020E" unicode="&#x20e;" horiz-adv-x="1528" 
d="M764 -25q-140 0 -264.5 49.5t-219.5 146.5t-149.5 239.5t-54.5 328.5q0 248 93.5 417.5t249.5 256t345 86.5t345 -86.5t249.5 -256t93.5 -417.5q0 -186 -54.5 -328.5t-150 -239.5t-220 -146.5t-263.5 -49.5zM764 256q84 0 158 45.5t120.5 151.5t46.5 286
q0 181 -46.5 285.5t-121 149t-157.5 44.5t-157.5 -44.5t-121 -149t-46.5 -285.5t46.5 -286.5t121 -151t157.5 -45.5zM458 1557q0 102 86.5 162.5t219.5 60.5t220 -60.5t87 -162.5h-207q0 37 -25.5 63t-74.5 26q-48 0 -74 -26t-26 -63h-206z" />
    <glyph glyph-name="Omacron" unicode="&#x14c;" horiz-adv-x="1528" 
d="M764 -25q-140 0 -264.5 49.5t-219.5 146.5t-149.5 239.5t-54.5 328.5q0 248 93.5 417.5t249.5 256t345 86.5t345 -86.5t249.5 -256t93.5 -417.5q0 -186 -54.5 -328.5t-150 -239.5t-220 -146.5t-263.5 -49.5zM764 256q84 0 158 45.5t120.5 151.5t46.5 286
q0 181 -46.5 285.5t-121 149t-157.5 44.5t-157.5 -44.5t-121 -149t-46.5 -285.5t46.5 -286.5t121 -151t157.5 -45.5zM434 1609v146h658v-146h-658z" />
    <glyph glyph-name="uni1E52" unicode="&#x1e52;" horiz-adv-x="1528" 
d="M764 -25q-140 0 -264.5 49.5t-219.5 146.5t-149.5 239.5t-54.5 328.5q0 248 93.5 417.5t249.5 256t345 86.5t345 -86.5t249.5 -256t93.5 -417.5q0 -186 -54.5 -328.5t-150 -239.5t-220 -146.5t-263.5 -49.5zM764 256q84 0 158 45.5t120.5 151.5t46.5 286
q0 181 -46.5 285.5t-121 149t-157.5 44.5t-157.5 -44.5t-121 -149t-46.5 -285.5t46.5 -286.5t121 -151t157.5 -45.5zM434 1609v146h658v-146h-658zM582 1841l270 215h274l-308 -215h-236z" />
    <glyph glyph-name="uni1E50" unicode="&#x1e50;" horiz-adv-x="1528" 
d="M764 -25q-140 0 -264.5 49.5t-219.5 146.5t-149.5 239.5t-54.5 328.5q0 248 93.5 417.5t249.5 256t345 86.5t345 -86.5t249.5 -256t93.5 -417.5q0 -186 -54.5 -328.5t-150 -239.5t-220 -146.5t-263.5 -49.5zM764 256q84 0 158 45.5t120.5 151.5t46.5 286
q0 181 -46.5 285.5t-121 149t-157.5 44.5t-157.5 -44.5t-121 -149t-46.5 -285.5t46.5 -286.5t121 -151t157.5 -45.5zM434 1609v146h658v-146h-658zM945 1841h-237l-307 215h274z" />
    <glyph glyph-name="uni01EA" unicode="&#x1ea;" horiz-adv-x="1528" 
d="M764 -25q-140 0 -264.5 49.5t-219.5 146.5t-149.5 239.5t-54.5 328.5q0 248 93.5 417.5t249.5 256t345 86.5t345 -86.5t249.5 -256t93.5 -417.5q0 -195 -60 -342.5t-164.5 -244.5t-236.5 -141q-29 -28 -59 -63.5t-51 -70.5t-21 -61q0 -35 28.5 -47.5t66.5 -12.5
q18 0 37.5 2t36.5 5v-168q-21 -2 -45 -3.5t-49 -1.5q-71 0 -135 16t-104.5 53t-40.5 100q0 62 36.5 118t80.5 98h-8zM764 256q84 0 158 45.5t120.5 151.5t46.5 286q0 181 -46.5 285.5t-121 149t-157.5 44.5t-157.5 -44.5t-121 -149t-46.5 -285.5t46.5 -286.5t121 -151
t157.5 -45.5z" />
    <glyph glyph-name="Oslash" unicode="&#xd8;" horiz-adv-x="1528" 
d="M764 -25q-164 0 -302 66l-95 -157l-181 104l104 173q-98 96 -156 241.5t-58 336.5q0 248 93.5 417.5t249.5 256t345 86.5q163 0 300 -63l95 156l183 -104l-104 -171q98 -96 156 -241t58 -337q0 -186 -54.5 -328.5t-150 -239.5t-220 -146.5t-263.5 -49.5zM439 739
q0 -83 10.5 -149.5t29.5 -118.5l431 710q-34 20 -71 28.5t-75 8.5q-83 0 -157.5 -44.5t-121 -149t-46.5 -285.5zM764 256q84 0 158 45.5t120.5 151.5t46.5 286q0 83 -10.5 149t-29.5 118l-433 -712q34 -20 71.5 -29t76.5 -9z" />
    <glyph glyph-name="Oslashacute" unicode="&#x1fe;" horiz-adv-x="1528" 
d="M764 -25q-164 0 -302 66l-95 -157l-181 104l104 173q-98 96 -156 241.5t-58 336.5q0 248 93.5 417.5t249.5 256t345 86.5q163 0 300 -63l95 156l183 -104l-104 -171q98 -96 156 -241t58 -337q0 -186 -54.5 -328.5t-150 -239.5t-220 -146.5t-263.5 -49.5zM439 739
q0 -83 10.5 -149.5t29.5 -118.5l431 710q-34 20 -71 28.5t-75 8.5q-83 0 -157.5 -44.5t-121 -149t-46.5 -285.5zM764 256q84 0 158 45.5t120.5 151.5t46.5 286q0 83 -10.5 149t-29.5 118l-433 -712q34 -20 71.5 -29t76.5 -9zM566 1561l270 215h274l-308 -215h-236z" />
    <glyph glyph-name="Otilde" unicode="&#xd5;" horiz-adv-x="1528" 
d="M764 -25q-140 0 -264.5 49.5t-219.5 146.5t-149.5 239.5t-54.5 328.5q0 248 93.5 417.5t249.5 256t345 86.5t345 -86.5t249.5 -256t93.5 -417.5q0 -186 -54.5 -328.5t-150 -239.5t-220 -146.5t-263.5 -49.5zM764 256q84 0 158 45.5t120.5 151.5t46.5 286
q0 181 -46.5 285.5t-121 149t-157.5 44.5t-157.5 -44.5t-121 -149t-46.5 -285.5t46.5 -286.5t121 -151t157.5 -45.5zM1119 1794q0 -58 -23 -115.5t-69.5 -95.5t-118.5 -38q-57 0 -93.5 22t-58.5 42q-22 21 -42 35.5t-46 14.5q-64 0 -65 -95h-177q0 59 24 116.5t72.5 96
t122.5 38.5q51 0 88 -22t59 -42q23 -21 45.5 -35.5t46.5 -14.5q58 0 59 93h176z" />
    <glyph glyph-name="uni1E4C" unicode="&#x1e4c;" horiz-adv-x="1528" 
d="M764 -25q-140 0 -264.5 49.5t-219.5 146.5t-149.5 239.5t-54.5 328.5q0 248 93.5 417.5t249.5 256t345 86.5t345 -86.5t249.5 -256t93.5 -417.5q0 -186 -54.5 -328.5t-150 -239.5t-220 -146.5t-263.5 -49.5zM764 256q84 0 158 45.5t120.5 151.5t46.5 286
q0 181 -46.5 285.5t-121 149t-157.5 44.5t-157.5 -44.5t-121 -149t-46.5 -285.5t46.5 -286.5t121 -151t157.5 -45.5zM1114.18 1790.12q0 -57.2598 -22.707 -114.026q-22.7061 -56.7666 -68.6133 -94.2822q-45.9062 -37.5156 -116.988 -37.5156q-56.2725 0 -92.3066 21.7197
q-36.0352 21.7197 -57.7539 41.4639q-21.7197 20.7324 -41.4648 35.0479q-19.7441 14.3145 -45.4131 14.3145q-63.1836 0 -64.1709 -93.7881h-174.742q0 58.248 23.6943 115.014q23.6934 56.7666 71.5752 94.7754q47.8809 38.0098 120.938 38.0098
q50.3486 0 86.877 -21.7197t58.2471 -41.4639q22.707 -20.7324 44.9199 -35.0479q22.2129 -14.3145 45.9072 -14.3145q57.2598 0 58.2471 91.8135h173.755zM586.011 1899.22l263.639 209.935h267.545l-300.744 -209.935h-230.439z" />
    <glyph glyph-name="uni1E4E" unicode="&#x1e4e;" horiz-adv-x="1528" 
d="M764 -25q-140 0 -264.5 49.5t-219.5 146.5t-149.5 239.5t-54.5 328.5q0 248 93.5 417.5t249.5 256t345 86.5t345 -86.5t249.5 -256t93.5 -417.5q0 -186 -54.5 -328.5t-150 -239.5t-220 -146.5t-263.5 -49.5zM764 256q84 0 158 45.5t120.5 151.5t46.5 286
q0 181 -46.5 285.5t-121 149t-157.5 44.5t-157.5 -44.5t-121 -149t-46.5 -285.5t46.5 -286.5t121 -151t157.5 -45.5zM1119 1794q0 -58 -23 -115.5t-69.5 -95.5t-118.5 -38q-57 0 -93.5 22t-58.5 42q-22 21 -42 35.5t-46 14.5q-64 0 -65 -95h-177q0 59 24 116.5t72.5 96
t122.5 38.5q51 0 88 -22t59 -42q23 -21 45.5 -35.5t46.5 -14.5q58 0 59 93h176zM507 1879q-73 0 -128 38.5t-55 109.5t55 109t128 38t128.5 -38t55.5 -109q0 -72 -55.5 -110t-128.5 -38zM1021 1879q-73 0 -128 38.5t-55 109.5t55 109t128 38t128 -38t55 -109q0 -72 -55 -110
t-128 -38z" />
    <glyph glyph-name="uni022C" unicode="&#x22c;" horiz-adv-x="1528" 
d="M764 -25q-140 0 -264.5 49.5t-219.5 146.5t-149.5 239.5t-54.5 328.5q0 248 93.5 417.5t249.5 256t345 86.5t345 -86.5t249.5 -256t93.5 -417.5q0 -186 -54.5 -328.5t-150 -239.5t-220 -146.5t-263.5 -49.5zM764 256q84 0 158 45.5t120.5 151.5t46.5 286
q0 181 -46.5 285.5t-121 149t-157.5 44.5t-157.5 -44.5t-121 -149t-46.5 -285.5t46.5 -286.5t121 -151t157.5 -45.5zM1119 1794q0 -58 -23 -115.5t-69.5 -95.5t-118.5 -38q-57 0 -93.5 22t-58.5 42q-22 21 -42 35.5t-46 14.5q-64 0 -65 -95h-177q0 59 24 116.5t72.5 96
t122.5 38.5q51 0 88 -22t59 -42q23 -21 45.5 -35.5t46.5 -14.5q58 0 59 93h176zM434 1952v146h658v-146h-658z" />
    <glyph glyph-name="OE" unicode="&#x152;" horiz-adv-x="2102" 
d="M746 -25q-187 0 -339 87.5t-241.5 258t-89.5 418.5t89 417.5t240.5 256t340.5 86.5q93 0 178 -27.5t135 -66.5v70h927v-270h-586v-330h483v-270h-483v-335h586v-270h-927v75q-50 -42 -135 -71t-178 -29zM746 256q84 0 154.5 45.5t113.5 151.5t43 286q0 181 -43 285.5
t-114 149t-154 44.5t-153 -44.5t-112 -149t-42 -285.5t42 -286.5t112 -151t153 -45.5z" />
    <glyph glyph-name="P" unicode="P" horiz-adv-x="1266" 
d="M474 0h-358v1475h535q168 0 290.5 -66t189.5 -179.5t67 -255.5t-67 -259t-190 -187t-290 -70h-177v-458zM614 1205h-140v-478h140q95 0 159.5 63.5t64.5 183.5q0 121 -64 176t-160 55z" />
    <glyph glyph-name="Thorn" unicode="&#xde;" horiz-adv-x="1221" 
d="M116 0v1473h357v-321h180q220 0 356 -106.5t136 -317.5q0 -141 -62.5 -234.5t-173.5 -140.5t-256 -47h-180v-306h-357zM616 881h-143v-305h143q78 0 126 39.5t48 113.5q0 76 -48.5 114t-125.5 38z" />
    <glyph glyph-name="Q" unicode="Q" horiz-adv-x="1528" 
d="M1160 -134l-100 -237q-14 0 -62.5 7.5t-112.5 28t-126.5 60.5t-106 105.5t-49.5 162.5q-149 33 -268.5 129t-189 251t-69.5 366q0 248 93.5 417.5t249.5 256t345 86.5t345 -86.5t249.5 -256t93.5 -417.5q0 -215 -72.5 -372t-195.5 -252t-276 -126q12 -35 46.5 -58t77 -37
t78.5 -20t50 -8zM764 256q84 0 158 45.5t120.5 151.5t46.5 286q0 181 -46.5 285.5t-121 149t-157.5 44.5t-157.5 -44.5t-121 -149t-46.5 -285.5t46.5 -286.5t121 -151t157.5 -45.5z" />
    <glyph glyph-name="R" unicode="R" horiz-adv-x="1303" 
d="M116 0v1475h626q242 0 359.5 -108.5t117.5 -306.5q0 -114 -43 -193.5t-107 -123t-125 -48.5q62 -4 117.5 -30.5t90.5 -85t35 -156.5v-263q0 -51 8 -95.5t24 -64.5h-357q-15 22 -23 65.5t-8 94.5v222q0 83 -40 130t-133 47h-193v-559h-349zM658 1206h-193v-377h197
q83 0 136.5 53.5t53.5 143.5q0 79 -51.5 129.5t-142.5 50.5z" />
    <glyph glyph-name="R.ss01" horiz-adv-x="1290" 
d="M743 1475q242 0 354 -114.5t112 -312.5q0 -175 -68 -276t-180 -147l244 -625h-364l-196 577h-180v-577h-349v1475h627zM673 838q78 0 123 51.5t45 144.5q0 79 -46 129.5t-137 50.5h-193v-376h208z" />
    <glyph glyph-name="Racute" unicode="&#x154;" horiz-adv-x="1303" 
d="M116 0v1475h626q242 0 359.5 -108.5t117.5 -306.5q0 -114 -43 -193.5t-107 -123t-125 -48.5q62 -4 117.5 -30.5t90.5 -85t35 -156.5v-263q0 -51 8 -95.5t24 -64.5h-357q-15 22 -23 65.5t-8 94.5v222q0 83 -40 130t-133 47h-193v-559h-349zM658 1206h-193v-377h197
q83 0 136.5 53.5t53.5 143.5q0 79 -51.5 129.5t-142.5 50.5zM445 1561l270 215h274l-308 -215h-236z" />
    <glyph glyph-name="Racute.ss01" horiz-adv-x="1290" 
d="M743 1475q242 0 354 -114.5t112 -312.5q0 -175 -68 -276t-180 -147l244 -625h-364l-196 577h-180v-577h-349v1475h627zM673 838q78 0 123 51.5t45 144.5q0 79 -46 129.5t-137 50.5h-193v-376h208zM448 1561l270 215h274l-308 -215h-236z" />
    <glyph glyph-name="Rcaron" unicode="&#x158;" horiz-adv-x="1303" 
d="M116 0v1475h626q242 0 359.5 -108.5t117.5 -306.5q0 -114 -43 -193.5t-107 -123t-125 -48.5q62 -4 117.5 -30.5t90.5 -85t35 -156.5v-263q0 -51 8 -95.5t24 -64.5h-357q-15 22 -23 65.5t-8 94.5v222q0 83 -40 130t-133 47h-193v-559h-349zM658 1206h-193v-377h197
q83 0 136.5 53.5t53.5 143.5q0 79 -51.5 129.5t-142.5 50.5zM264 1775h222l140 -124l140 124h223l-249 -216h-226z" />
    <glyph glyph-name="Rcaron.ss01" horiz-adv-x="1290" 
d="M743 1475q242 0 354 -114.5t112 -312.5q0 -175 -68 -276t-180 -147l244 -625h-364l-196 577h-180v-577h-349v1475h627zM673 838q78 0 123 51.5t45 144.5q0 79 -46 129.5t-137 50.5h-193v-376h208zM268 1775h222l140 -124l140 124h223l-249 -216h-226z" />
    <glyph glyph-name="uni0156" unicode="&#x156;" horiz-adv-x="1303" 
d="M116 0v1475h626q242 0 359.5 -108.5t117.5 -306.5q0 -114 -43 -193.5t-107 -123t-125 -48.5q62 -4 117.5 -30.5t90.5 -85t35 -156.5v-263q0 -51 8 -95.5t24 -64.5h-357q-15 22 -23 65.5t-8 94.5v222q0 83 -40 130t-133 47h-193v-559h-349zM658 1206h-193v-377h197
q83 0 136.5 53.5t53.5 143.5q0 79 -51.5 129.5t-142.5 50.5zM646 -276q-50 0 -79 26t-29 71q0 57 42.5 80.5t90.5 23.5q43 0 88.5 -29t45.5 -101q0 -79 -35.5 -130.5t-84.5 -81.5t-88 -44l-20 53q31 10 65 30.5t58 52.5t24 78q-9 -14 -31.5 -21.5t-46.5 -7.5z" />
    <glyph glyph-name="uni0156.ss01" horiz-adv-x="1290" 
d="M743 1475q242 0 354 -114.5t112 -312.5q0 -175 -68 -276t-180 -147l244 -625h-364l-196 577h-180v-577h-349v1475h627zM673 838q78 0 123 51.5t45 144.5q0 79 -46 129.5t-137 50.5h-193v-376h208zM604 -276q-50 0 -79 26t-29 71q0 57 42.5 80.5t90.5 23.5q43 0 88.5 -29
t45.5 -101q0 -79 -35.5 -130.5t-84.5 -81.5t-88 -44l-20 53q31 10 65 30.5t58 52.5t24 78q-9 -14 -31.5 -21.5t-46.5 -7.5z" />
    <glyph glyph-name="uni0210" unicode="&#x210;" horiz-adv-x="1303" 
d="M116 0v1475h626q242 0 359.5 -108.5t117.5 -306.5q0 -114 -43 -193.5t-107 -123t-125 -48.5q62 -4 117.5 -30.5t90.5 -85t35 -156.5v-263q0 -51 8 -95.5t24 -64.5h-357q-15 22 -23 65.5t-8 94.5v222q0 83 -40 130t-133 47h-193v-559h-349zM658 1206h-193v-377h197
q83 0 136.5 53.5t53.5 143.5q0 79 -51.5 129.5t-142.5 50.5zM892 1560h-187l-209 217h211zM552 1560h-187l-236 217h212z" />
    <glyph glyph-name="uni0210.ss01" horiz-adv-x="1290" 
d="M743 1475q242 0 354 -114.5t112 -312.5q0 -175 -68 -276t-180 -147l244 -625h-364l-196 577h-180v-577h-349v1475h627zM673 838q78 0 123 51.5t45 144.5q0 79 -46 129.5t-137 50.5h-193v-376h208zM895 1560h-187l-209 217h211zM555 1560h-187l-236 217h212z" />
    <glyph glyph-name="uni1E5A" unicode="&#x1e5a;" horiz-adv-x="1303" 
d="M116 0v1475h626q242 0 359.5 -108.5t117.5 -306.5q0 -114 -43 -193.5t-107 -123t-125 -48.5q62 -4 117.5 -30.5t90.5 -85t35 -156.5v-263q0 -51 8 -95.5t24 -64.5h-357q-15 22 -23 65.5t-8 94.5v222q0 83 -40 130t-133 47h-193v-559h-349zM658 1206h-193v-377h197
q83 0 136.5 53.5t53.5 143.5q0 79 -51.5 129.5t-142.5 50.5zM672 -436q-81 0 -140.5 42t-59.5 120t59.5 119.5t140.5 41.5q80 0 140.5 -41.5t60.5 -119.5q0 -79 -60.5 -120.5t-140.5 -41.5z" />
    <glyph glyph-name="uni1E5A.ss01" horiz-adv-x="1290" 
d="M743 1475q242 0 354 -114.5t112 -312.5q0 -175 -68 -276t-180 -147l244 -625h-364l-196 577h-180v-577h-349v1475h627zM673 838q78 0 123 51.5t45 144.5q0 79 -46 129.5t-137 50.5h-193v-376h208zM630 -436q-81 0 -140.5 42t-59.5 120t59.5 119.5t140.5 41.5
q80 0 140.5 -41.5t60.5 -119.5q0 -79 -60.5 -120.5t-140.5 -41.5z" />
    <glyph glyph-name="uni0212" unicode="&#x212;" horiz-adv-x="1303" 
d="M116 0v1475h626q242 0 359.5 -108.5t117.5 -306.5q0 -114 -43 -193.5t-107 -123t-125 -48.5q62 -4 117.5 -30.5t90.5 -85t35 -156.5v-263q0 -51 8 -95.5t24 -64.5h-357q-15 22 -23 65.5t-8 94.5v222q0 83 -40 130t-133 47h-193v-559h-349zM658 1206h-193v-377h197
q83 0 136.5 53.5t53.5 143.5q0 79 -51.5 129.5t-142.5 50.5zM321 1557q0 102 86.5 162.5t219.5 60.5t220 -60.5t87 -162.5h-207q0 37 -25.5 63t-74.5 26q-48 0 -74 -26t-26 -63h-206z" />
    <glyph glyph-name="uni0212.ss01" horiz-adv-x="1290" 
d="M743 1475q242 0 354 -114.5t112 -312.5q0 -175 -68 -276t-180 -147l244 -625h-364l-196 577h-180v-577h-349v1475h627zM673 838q78 0 123 51.5t45 144.5q0 79 -46 129.5t-137 50.5h-193v-376h208zM324 1557q0 102 86.5 162.5t219.5 60.5t220 -60.5t87 -162.5h-207
q0 37 -25.5 63t-74.5 26q-48 0 -74 -26t-26 -63h-206z" />
    <glyph glyph-name="uni1E5E" unicode="&#x1e5e;" horiz-adv-x="1303" 
d="M116 0v1475h626q242 0 359.5 -108.5t117.5 -306.5q0 -114 -43 -193.5t-107 -123t-125 -48.5q62 -4 117.5 -30.5t90.5 -85t35 -156.5v-263q0 -51 8 -95.5t24 -64.5h-357q-15 22 -23 65.5t-8 94.5v222q0 83 -40 130t-133 47h-193v-559h-349zM658 1206h-193v-377h197
q83 0 136.5 53.5t53.5 143.5q0 79 -51.5 129.5t-142.5 50.5zM333 -317v145h677v-145h-677z" />
    <glyph glyph-name="uni1E5E.ss01" horiz-adv-x="1290" 
d="M743 1475q242 0 354 -114.5t112 -312.5q0 -175 -68 -276t-180 -147l244 -625h-364l-196 577h-180v-577h-349v1475h627zM673 838q78 0 123 51.5t45 144.5q0 79 -46 129.5t-137 50.5h-193v-376h208zM292 -317v145h677v-145h-677z" />
    <glyph glyph-name="S" unicode="S" horiz-adv-x="1271" 
d="M633 -25q-161 0 -287 51.5t-198 154.5t-72 256v55h357v-48q0 -87 50.5 -138t152.5 -51q101 0 156.5 31t55.5 102q0 51 -46.5 92t-125.5 75.5t-178 64.5q-108 34 -202 90.5t-152 145.5t-58 219q0 134 72 228.5t196 145t278 50.5q159 0 284 -50t196.5 -148t71.5 -242v-55
h-356v38q0 81 -45.5 129.5t-146.5 48.5q-99 0 -153 -36t-54 -108q0 -77 91.5 -124t231.5 -96q133 -46 232.5 -102t155 -140.5t55.5 -214.5q0 -137 -72 -231.5t-198.5 -143.5t-291.5 -49z" />
    <glyph glyph-name="Sacute" unicode="&#x15a;" horiz-adv-x="1271" 
d="M633 -25q-161 0 -287 51.5t-198 154.5t-72 256v55h357v-48q0 -87 50.5 -138t152.5 -51q101 0 156.5 31t55.5 102q0 51 -46.5 92t-125.5 75.5t-178 64.5q-108 34 -202 90.5t-152 145.5t-58 219q0 134 72 228.5t196 145t278 50.5q159 0 284 -50t196.5 -148t71.5 -242v-55
h-356v38q0 81 -45.5 129.5t-146.5 48.5q-99 0 -153 -36t-54 -108q0 -77 91.5 -124t231.5 -96q133 -46 232.5 -102t155 -140.5t55.5 -214.5q0 -137 -72 -231.5t-198.5 -143.5t-291.5 -49zM454 1561l270 215h274l-308 -215h-236z" />
    <glyph glyph-name="uni1E64" unicode="&#x1e64;" horiz-adv-x="1271" 
d="M633 -25q-161 0 -287 51.5t-198 154.5t-72 256v55h357v-48q0 -87 50.5 -138t152.5 -51q101 0 156.5 31t55.5 102q0 51 -46.5 92t-125.5 75.5t-178 64.5q-108 34 -202 90.5t-152 145.5t-58 219q0 134 72 228.5t196 145t278 50.5q159 0 284 -50t196.5 -148t71.5 -242v-55
h-356v38q0 81 -45.5 129.5t-146.5 48.5q-99 0 -153 -36t-54 -108q0 -77 91.5 -124t231.5 -96q133 -46 232.5 -102t155 -140.5t55.5 -214.5q0 -137 -72 -231.5t-198.5 -143.5t-291.5 -49zM487.463 1545.89l221.551 176.42h224.832l-252.73 -176.42h-193.652zM638.145 1798.75
q-73.2178 0 -128.131 38.4395t-54.9131 108.912q0 71.3867 54.9131 109.369q54.9131 37.9814 128.131 37.9814q74.1328 0 129.047 -37.9814q54.9131 -37.9824 54.9131 -109.369q0 -71.3877 -54.9131 -109.369q-54.9141 -37.9824 -129.047 -37.9824z" />
    <glyph glyph-name="Scaron" unicode="&#x160;" horiz-adv-x="1271" 
d="M633 -25q-161 0 -287 51.5t-198 154.5t-72 256v55h357v-48q0 -87 50.5 -138t152.5 -51q101 0 156.5 31t55.5 102q0 51 -46.5 92t-125.5 75.5t-178 64.5q-108 34 -202 90.5t-152 145.5t-58 219q0 134 72 228.5t196 145t278 50.5q159 0 284 -50t196.5 -148t71.5 -242v-55
h-356v38q0 81 -45.5 129.5t-146.5 48.5q-99 0 -153 -36t-54 -108q0 -77 91.5 -124t231.5 -96q133 -46 232.5 -102t155 -140.5t55.5 -214.5q0 -137 -72 -231.5t-198.5 -143.5t-291.5 -49zM274 1775h222l140 -124l140 124h223l-249 -216h-226z" />
    <glyph glyph-name="uni1E66" unicode="&#x1e66;" horiz-adv-x="1271" 
d="M633 -25q-161 0 -287 51.5t-198 154.5t-72 256v55h357v-48q0 -87 50.5 -138t152.5 -51q101 0 156.5 31t55.5 102q0 51 -46.5 92t-125.5 75.5t-178 64.5q-108 34 -202 90.5t-152 145.5t-58 219q0 134 72 228.5t196 145t278 50.5q159 0 284 -50t196.5 -148t71.5 -242v-55
h-356v38q0 81 -45.5 129.5t-146.5 48.5q-99 0 -153 -36t-54 -108q0 -77 91.5 -124t231.5 -96q133 -46 232.5 -102t155 -140.5t55.5 -214.5q0 -137 -72 -231.5t-198.5 -143.5t-291.5 -49zM274 1775h222l140 -124l140 124h223l-249 -216h-226zM639 1860q-80 0 -140 42t-60 119
q0 78 60 119.5t140 41.5q81 0 141 -41.5t60 -119.5t-60 -119.5t-141 -41.5z" />
    <glyph glyph-name="Scedilla" unicode="&#x15e;" horiz-adv-x="1271" 
d="M751 -65q36 0 73 -14.5t62 -47.5t25 -88q0 -69 -43 -113t-110 -64.5t-140 -20.5q-64 0 -133 16.5t-98 36.5l68 127q21 -12 72 -31t103 -19q55 0 91 19t36 56q0 29 -18 42t-43 13q-24 0 -47.5 -8t-34.5 -25l-132 36l63 129q-207 20 -338 135t-131 323v55h357v-48
q0 -87 50.5 -138t152.5 -51q101 0 156.5 31t55.5 102q0 51 -46.5 92t-125.5 75.5t-178 64.5q-108 34 -202 90.5t-152 145.5t-58 219q0 134 72 228.5t196 145t278 50.5q159 0 284 -50t196.5 -148t71.5 -242v-55h-356v38q0 81 -45.5 129.5t-146.5 48.5q-99 0 -153 -36
t-54 -108q0 -77 91.5 -124t231.5 -96q133 -46 232.5 -102t155 -140.5t55.5 -214.5q0 -128 -63.5 -219.5t-176.5 -142.5t-262 -60l-32 -63q33 21 90 21z" />
    <glyph glyph-name="Scircumflex" unicode="&#x15c;" horiz-adv-x="1271" 
d="M633 -25q-161 0 -287 51.5t-198 154.5t-72 256v55h357v-48q0 -87 50.5 -138t152.5 -51q101 0 156.5 31t55.5 102q0 51 -46.5 92t-125.5 75.5t-178 64.5q-108 34 -202 90.5t-152 145.5t-58 219q0 134 72 228.5t196 145t278 50.5q159 0 284 -50t196.5 -148t71.5 -242v-55
h-356v38q0 81 -45.5 129.5t-146.5 48.5q-99 0 -153 -36t-54 -108q0 -77 91.5 -124t231.5 -96q133 -46 232.5 -102t155 -140.5t55.5 -214.5q0 -137 -72 -231.5t-198.5 -143.5t-291.5 -49zM274 1559l250 216h226l249 -216h-223l-140 125l-140 -125h-222z" />
    <glyph glyph-name="uni0218" unicode="&#x218;" horiz-adv-x="1271" 
d="M633 -25q-161 0 -287 51.5t-198 154.5t-72 256v55h357v-48q0 -87 50.5 -138t152.5 -51q101 0 156.5 31t55.5 102q0 51 -46.5 92t-125.5 75.5t-178 64.5q-108 34 -202 90.5t-152 145.5t-58 219q0 134 72 228.5t196 145t278 50.5q159 0 284 -50t196.5 -148t71.5 -242v-55
h-356v38q0 81 -45.5 129.5t-146.5 48.5q-99 0 -153 -36t-54 -108q0 -77 91.5 -124t231.5 -96q133 -46 232.5 -102t155 -140.5t55.5 -214.5q0 -137 -72 -231.5t-198.5 -143.5t-291.5 -49zM609 -276q-50 0 -79 26t-29 71q0 57 42.5 80.5t90.5 23.5q43 0 88.5 -29t45.5 -101
q0 -79 -35.5 -130.5t-84.5 -81.5t-88 -44l-20 53q31 10 65 30.5t58 52.5t24 78q-9 -14 -31.5 -21.5t-46.5 -7.5z" />
    <glyph glyph-name="uni1E60" unicode="&#x1e60;" horiz-adv-x="1271" 
d="M633 -25q-161 0 -287 51.5t-198 154.5t-72 256v55h357v-48q0 -87 50.5 -138t152.5 -51q101 0 156.5 31t55.5 102q0 51 -46.5 92t-125.5 75.5t-178 64.5q-108 34 -202 90.5t-152 145.5t-58 219q0 134 72 228.5t196 145t278 50.5q159 0 284 -50t196.5 -148t71.5 -242v-55
h-356v38q0 81 -45.5 129.5t-146.5 48.5q-99 0 -153 -36t-54 -108q0 -77 91.5 -124t231.5 -96q133 -46 232.5 -102t155 -140.5t55.5 -214.5q0 -137 -72 -231.5t-198.5 -143.5t-291.5 -49zM639 1560q-80 0 -140 42t-60 119q0 78 60 119.5t140 41.5q81 0 141 -41.5t60 -119.5
t-60 -119.5t-141 -41.5z" />
    <glyph glyph-name="uni1E62" unicode="&#x1e62;" horiz-adv-x="1271" 
d="M633 -25q-161 0 -287 51.5t-198 154.5t-72 256v55h357v-48q0 -87 50.5 -138t152.5 -51q101 0 156.5 31t55.5 102q0 51 -46.5 92t-125.5 75.5t-178 64.5q-108 34 -202 90.5t-152 145.5t-58 219q0 134 72 228.5t196 145t278 50.5q159 0 284 -50t196.5 -148t71.5 -242v-55
h-356v38q0 81 -45.5 129.5t-146.5 48.5q-99 0 -153 -36t-54 -108q0 -77 91.5 -124t231.5 -96q133 -46 232.5 -102t155 -140.5t55.5 -214.5q0 -137 -72 -231.5t-198.5 -143.5t-291.5 -49zM635 -436q-81 0 -140.5 42t-59.5 120t59.5 119.5t140.5 41.5q80 0 140.5 -41.5
t60.5 -119.5q0 -79 -60.5 -120.5t-140.5 -41.5z" />
    <glyph glyph-name="uni1E68" unicode="&#x1e68;" horiz-adv-x="1271" 
d="M633 -25q-161 0 -287 51.5t-198 154.5t-72 256v55h357v-48q0 -87 50.5 -138t152.5 -51q101 0 156.5 31t55.5 102q0 51 -46.5 92t-125.5 75.5t-178 64.5q-108 34 -202 90.5t-152 145.5t-58 219q0 134 72 228.5t196 145t278 50.5q159 0 284 -50t196.5 -148t71.5 -242v-55
h-356v38q0 81 -45.5 129.5t-146.5 48.5q-99 0 -153 -36t-54 -108q0 -77 91.5 -124t231.5 -96q133 -46 232.5 -102t155 -140.5t55.5 -214.5q0 -137 -72 -231.5t-198.5 -143.5t-291.5 -49zM635 -436q-81 0 -140.5 42t-59.5 120t59.5 119.5t140.5 41.5q80 0 140.5 -41.5
t60.5 -119.5q0 -79 -60.5 -120.5t-140.5 -41.5zM639 1560q-80 0 -140 42t-60 119q0 78 60 119.5t140 41.5q81 0 141 -41.5t60 -119.5t-60 -119.5t-141 -41.5z" />
    <glyph glyph-name="uni1E9E" unicode="&#x1e9e;" horiz-adv-x="1399" 
d="M116 0v1101q0 131 58 213.5t155.5 121.5t216.5 39h669v-286l-317 -301q29 7 71 7q89 0 170 -41t132.5 -136.5t51.5 -259.5q0 -172 -73.5 -275.5t-198 -149.5t-278.5 -46q-75 0 -127.5 10.5t-73.5 19.5l1 274q18 -8 80 -21t127 -13q76 0 130 53.5t54 162.5t-48.5 157
t-121.5 48q-36 0 -60 -10.5t-33 -16.5l-176 221l324 333h-256q-64 0 -91.5 -37.5t-27.5 -101.5v-1066h-358z" />
    <glyph glyph-name="uni018F" unicode="&#x18f;" horiz-adv-x="1351" 
d="M663 -11q-171 0 -303.5 76.5t-208 239.5t-75.5 423q0 105 3 123h833q-9 147 -42.5 226.5t-84 110.5t-112.5 31q-108 0 -171 -64.5t-69 -150.5h-343q4 139 81.5 247.5t207.5 170.5t294 62q121 0 229.5 -39t192.5 -126t132 -230t48 -350q0 -256 -81.5 -422t-220.5 -247
t-310 -81zM663 253q99 0 164 78.5t83 266.5h-481q8 -187 71 -266t163 -79z" />
    <glyph glyph-name="T" unicode="T" horiz-adv-x="1191" 
d="M1127 1205h-354v-1205h-356v1205h-353v270h1063v-270z" />
    <glyph glyph-name="Tbar" unicode="&#x166;" horiz-adv-x="1191" 
d="M227 658v160h190v387h-353v270h1063v-270h-354v-387h193v-160h-193v-658h-356v658h-190z" />
    <glyph glyph-name="Tcaron" unicode="&#x164;" horiz-adv-x="1191" 
d="M1127 1205h-354v-1205h-356v1205h-353v270h1063v-270zM234 1775h222l140 -124l140 124h223l-249 -216h-226z" />
    <glyph glyph-name="uni0162" unicode="&#x162;" horiz-adv-x="1191" 
d="M1127 1205h-354v-1205h-356v1205h-353v270h1063v-270zM712 -65q36 0 73 -14.5t62 -47.5t25 -88q0 -69 -43 -113t-110 -64.5t-140 -20.5q-64 0 -133 16.5t-98 36.5l68 127q21 -12 72 -31t103 -19q55 0 91 19t36 56q0 29 -18 42t-43 13q-24 0 -47.5 -8t-34.5 -25l-132 36
l73 150h149l-43 -86q33 21 90 21z" />
    <glyph glyph-name="uni021A" unicode="&#x21a;" horiz-adv-x="1191" 
d="M1127 1205h-354v-1205h-356v1205h-353v270h1063v-270zM570 -276q-50 0 -79 26t-29 71q0 57 42.5 80.5t90.5 23.5q43 0 88.5 -29t45.5 -101q0 -79 -35.5 -130.5t-84.5 -81.5t-88 -44l-20 53q31 10 65 30.5t58 52.5t24 78q-9 -14 -31.5 -21.5t-46.5 -7.5z" />
    <glyph glyph-name="uni1E6C" unicode="&#x1e6c;" horiz-adv-x="1191" 
d="M1127 1205h-354v-1205h-356v1205h-353v270h1063v-270zM596 -436q-81 0 -140.5 42t-59.5 120t59.5 119.5t140.5 41.5q80 0 140.5 -41.5t60.5 -119.5q0 -79 -60.5 -120.5t-140.5 -41.5z" />
    <glyph glyph-name="uni1E6E" unicode="&#x1e6e;" horiz-adv-x="1191" 
d="M1127 1205h-354v-1205h-356v1205h-353v270h1063v-270zM258 -317v145h677v-145h-677z" />
    <glyph glyph-name="U" unicode="U" horiz-adv-x="1369" 
d="M1253 529q0 -278 -152.5 -416t-416.5 -138t-416 138t-152 416v946h358v-954q0 -133 47.5 -199.5t162.5 -66.5t163.5 66.5t48.5 199.5v954h357v-946z" />
    <glyph glyph-name="Uacute" unicode="&#xda;" horiz-adv-x="1369" 
d="M1253 529q0 -278 -152.5 -416t-416.5 -138t-416 138t-152 416v946h358v-954q0 -133 47.5 -199.5t162.5 -66.5t163.5 66.5t48.5 199.5v954h357v-946zM503 1561l270 215h274l-308 -215h-236z" />
    <glyph glyph-name="Ubreve" unicode="&#x16c;" horiz-adv-x="1369" 
d="M1253 529q0 -278 -152.5 -416t-416.5 -138t-416 138t-152 416v946h358v-954q0 -133 47.5 -199.5t162.5 -66.5t163.5 66.5t48.5 199.5v954h357v-946zM379 1759h206q0 -37 26 -63t74 -26q49 0 74.5 26t25.5 63h207q0 -101 -87 -162t-220 -61t-219.5 61t-86.5 162z" />
    <glyph glyph-name="uni01D3" unicode="&#x1d3;" horiz-adv-x="1369" 
d="M1253 529q0 -278 -152.5 -416t-416.5 -138t-416 138t-152 416v946h358v-954q0 -133 47.5 -199.5t162.5 -66.5t163.5 66.5t48.5 199.5v954h357v-946zM323 1888h221l139 -163l141 163h222l-249 -281h-224z" />
    <glyph glyph-name="Ucircumflex" unicode="&#xdb;" horiz-adv-x="1369" 
d="M1253 529q0 -278 -152.5 -416t-416.5 -138t-416 138t-152 416v946h358v-954q0 -133 47.5 -199.5t162.5 -66.5t163.5 66.5t48.5 199.5v954h357v-946zM322 1559l250 216h226l249 -216h-223l-140 125l-140 -125h-222z" />
    <glyph glyph-name="uni0214" unicode="&#x214;" horiz-adv-x="1369" 
d="M1253 529q0 -278 -152.5 -416t-416.5 -138t-416 138t-152 416v946h358v-954q0 -133 47.5 -199.5t162.5 -66.5t163.5 66.5t48.5 199.5v954h357v-946zM950 1560h-187l-209 217h211zM610 1560h-187l-236 217h212z" />
    <glyph glyph-name="Udieresis" unicode="&#xdc;" horiz-adv-x="1369" 
d="M1253 529q0 -278 -152.5 -416t-416.5 -138t-416 138t-152 416v946h358v-954q0 -133 47.5 -199.5t162.5 -66.5t163.5 66.5t48.5 199.5v954h357v-946zM428 1536q-73 0 -128 38.5t-55 109.5t55 109t128 38t128.5 -38t55.5 -109q0 -72 -55.5 -110t-128.5 -38zM942 1536
q-73 0 -128 38.5t-55 109.5t55 109t128 38t128 -38t55 -109q0 -72 -55 -110t-128 -38z" />
    <glyph glyph-name="uni01D7" unicode="&#x1d7;" horiz-adv-x="1369" 
d="M1253 529q0 -278 -152.5 -416t-416.5 -138t-416 138t-152 416v946h358v-954q0 -133 47.5 -199.5t162.5 -66.5t163.5 66.5t48.5 199.5v954h357v-946zM428 1536q-73 0 -128 38.5t-55 109.5t55 109t128 38t128.5 -38t55.5 -109q0 -72 -55.5 -110t-128.5 -38zM942 1536
q-73 0 -128 38.5t-55 109.5t55 109t128 38t128 -38t55 -109q0 -72 -55 -110t-128 -38zM503 1871l270 215h274l-308 -215h-236z" />
    <glyph glyph-name="uni01D9" unicode="&#x1d9;" horiz-adv-x="1369" 
d="M1253 529q0 -278 -152.5 -416t-416.5 -138t-416 138t-152 416v946h358v-954q0 -133 47.5 -199.5t162.5 -66.5t163.5 66.5t48.5 199.5v954h357v-946zM428 1536q-73 0 -128 38.5t-55 109.5t55 109t128 38t128.5 -38t55.5 -109q0 -72 -55.5 -110t-128.5 -38zM942 1536
q-73 0 -128 38.5t-55 109.5t55 109t128 38t128 -38t55 -109q0 -72 -55 -110t-128 -38zM322 2085h222l140 -124l140 124h223l-249 -216h-226z" />
    <glyph glyph-name="uni01DB" unicode="&#x1db;" horiz-adv-x="1369" 
d="M1253 529q0 -278 -152.5 -416t-416.5 -138t-416 138t-152 416v946h358v-954q0 -133 47.5 -199.5t162.5 -66.5t163.5 66.5t48.5 199.5v954h357v-946zM428 1536q-73 0 -128 38.5t-55 109.5t55 109t128 38t128.5 -38t55.5 -109q0 -72 -55.5 -110t-128.5 -38zM942 1536
q-73 0 -128 38.5t-55 109.5t55 109t128 38t128 -38t55 -109q0 -72 -55 -110t-128 -38zM866 1871h-237l-307 215h274z" />
    <glyph glyph-name="uni01D5" unicode="&#x1d5;" horiz-adv-x="1369" 
d="M1253 529q0 -278 -152.5 -416t-416.5 -138t-416 138t-152 416v946h358v-954q0 -133 47.5 -199.5t162.5 -66.5t163.5 66.5t48.5 199.5v954h357v-946zM428 1536q-73 0 -128 38.5t-55 109.5t55 109t128 38t128.5 -38t55.5 -109q0 -72 -55.5 -110t-128.5 -38zM942 1536
q-73 0 -128 38.5t-55 109.5t55 109t128 38t128 -38t55 -109q0 -72 -55 -110t-128 -38zM355 1919v146h658v-146h-658z" />
    <glyph glyph-name="uni1EE4" unicode="&#x1ee4;" horiz-adv-x="1369" 
d="M1253 529q0 -278 -152.5 -416t-416.5 -138t-416 138t-152 416v946h358v-954q0 -133 47.5 -199.5t162.5 -66.5t163.5 66.5t48.5 199.5v954h357v-946zM684 -436q-81 0 -140.5 42t-59.5 120t59.5 119.5t140.5 41.5q80 0 140.5 -41.5t60.5 -119.5q0 -79 -60.5 -120.5
t-140.5 -41.5z" />
    <glyph glyph-name="Ugrave" unicode="&#xd9;" horiz-adv-x="1369" 
d="M1253 529q0 -278 -152.5 -416t-416.5 -138t-416 138t-152 416v946h358v-954q0 -133 47.5 -199.5t162.5 -66.5t163.5 66.5t48.5 199.5v954h357v-946zM866 1561h-237l-307 215h274z" />
    <glyph glyph-name="uni1EE6" unicode="&#x1ee6;" horiz-adv-x="1369" 
d="M1253 529q0 -278 -152.5 -416t-416.5 -138t-416 138t-152 416v946h358v-954q0 -133 47.5 -199.5t162.5 -66.5t163.5 66.5t48.5 199.5v954h357v-946zM467 1820q113 0 211.5 -8.5t159.5 -39t61 -94.5q0 -83 -85.5 -121.5t-215.5 -38.5l-35 90q30 2 69.5 7.5t69 16.5
t29.5 32q0 30 -69 39t-195 9v108z" />
    <glyph glyph-name="Uhorn" unicode="&#x1af;" horiz-adv-x="1453" 
d="M1253 529q0 -278 -152.5 -416t-416.5 -138t-416 138t-152 416v946h358v-954q0 -133 47.5 -199.5t162.5 -66.5t163.5 66.5t48.5 199.5v954h210q78 0 111.5 66t33.5 194h218q0 -169 -56.5 -269t-159.5 -137v-800z" />
    <glyph glyph-name="uni1EE8" unicode="&#x1ee8;" horiz-adv-x="1469" 
d="M1253 529q0 -278 -152.5 -416t-416.5 -138t-416 138t-152 416v946h358v-954q0 -133 47.5 -199.5t162.5 -66.5t163.5 66.5t48.5 199.5v954h210q78 0 111.5 66t33.5 194h218q0 -169 -56.5 -269t-159.5 -137v-800zM503 1561l270 215h274l-308 -215h-236z" />
    <glyph glyph-name="uni1EF0" unicode="&#x1ef0;" horiz-adv-x="1469" 
d="M647 -453q-81 0 -140.5 42t-59.5 120t59.5 119.5t140.5 41.5q80 0 140.5 -41.5t60.5 -119.5q0 -79 -60.5 -120.5t-140.5 -41.5zM1253 529q0 -278 -152.5 -416t-416.5 -138t-416 138t-152 416v946h358v-954q0 -133 47.5 -199.5t162.5 -66.5t163.5 66.5t48.5 199.5v954h210
q78 0 111.5 66t33.5 194h218q0 -169 -56.5 -269t-159.5 -137v-800z" />
    <glyph glyph-name="uni1EEA" unicode="&#x1eea;" horiz-adv-x="1469" 
d="M872 1561h-237l-307 215h274zM1253 529q0 -278 -152.5 -416t-416.5 -138t-416 138t-152 416v946h358v-954q0 -133 47.5 -199.5t162.5 -66.5t163.5 66.5t48.5 199.5v954h210q78 0 111.5 66t33.5 194h218q0 -169 -56.5 -269t-159.5 -137v-800z" />
    <glyph glyph-name="uni1EEC" unicode="&#x1eec;" horiz-adv-x="1469" 
d="M1253 529q0 -278 -152.5 -416t-416.5 -138t-416 138t-152 416v946h358v-954q0 -133 47.5 -199.5t162.5 -66.5t163.5 66.5t48.5 199.5v954h210q78 0 111.5 66t33.5 194h218q0 -169 -56.5 -269t-159.5 -137v-800zM467 1820q113 0 211.5 -8.5t159.5 -39t61 -94.5
q0 -83 -85.5 -121.5t-215.5 -38.5l-35 90q30 2 69.5 7.5t69 16.5t29.5 32q0 30 -69 39t-195 9v108z" />
    <glyph glyph-name="uni1EEE" unicode="&#x1eee;" horiz-adv-x="1469" 
d="M1051 1794q0 -58 -23 -115.5t-69.5 -95.5t-118.5 -38q-57 0 -93.5 22t-58.5 42q-22 21 -42 35.5t-46 14.5q-64 0 -65 -95h-177q0 59 24 116.5t72.5 96t122.5 38.5q51 0 88 -22t59 -42q23 -21 45.5 -35.5t46.5 -14.5q58 0 59 93h176zM1253 529q0 -278 -152.5 -416
t-416.5 -138t-416 138t-152 416v946h358v-954q0 -133 47.5 -199.5t162.5 -66.5t163.5 66.5t48.5 199.5v954h210q78 0 111.5 66t33.5 194h218q0 -169 -56.5 -269t-159.5 -137v-800z" />
    <glyph glyph-name="Uhungarumlaut" unicode="&#x170;" horiz-adv-x="1369" 
d="M1253 529q0 -278 -152.5 -416t-416.5 -138t-416 138t-152 416v946h358v-954q0 -133 47.5 -199.5t162.5 -66.5t163.5 66.5t48.5 199.5v954h357v-946zM400 1561l251 215h217l-271 -215h-197zM765 1561l251 215h217l-271 -215h-197z" />
    <glyph glyph-name="uni0216" unicode="&#x216;" horiz-adv-x="1369" 
d="M1253 529q0 -278 -152.5 -416t-416.5 -138t-416 138t-152 416v946h358v-954q0 -133 47.5 -199.5t162.5 -66.5t163.5 66.5t48.5 199.5v954h357v-946zM379 1557q0 102 86.5 162.5t219.5 60.5t220 -60.5t87 -162.5h-207q0 37 -25.5 63t-74.5 26q-48 0 -74 -26t-26 -63h-206z
" />
    <glyph glyph-name="Umacron" unicode="&#x16a;" horiz-adv-x="1369" 
d="M1253 529q0 -278 -152.5 -416t-416.5 -138t-416 138t-152 416v946h358v-954q0 -133 47.5 -199.5t162.5 -66.5t163.5 66.5t48.5 199.5v954h357v-946zM355 1609v146h658v-146h-658z" />
    <glyph glyph-name="uni1E7A" unicode="&#x1e7a;" horiz-adv-x="1369" 
d="M1253 529q0 -278 -152.5 -416t-416.5 -138t-416 138t-152 416v946h358v-954q0 -133 47.5 -199.5t162.5 -66.5t163.5 66.5t48.5 199.5v954h357v-946zM355 1609v146h658v-146h-658zM428 1816q-73 0 -128 38.5t-55 109.5t55 109t128 38t128.5 -38t55.5 -109
q0 -72 -55.5 -110t-128.5 -38zM942 1816q-73 0 -128 38.5t-55 109.5t55 109t128 38t128 -38t55 -109q0 -72 -55 -110t-128 -38z" />
    <glyph glyph-name="Uogonek" unicode="&#x172;" horiz-adv-x="1369" 
d="M965 -255v-168q-21 -2 -45 -3.5t-49 -1.5q-71 0 -135 16t-104.5 53t-40.5 100q0 69 44.5 130.5t93.5 104.5q-22 -1 -45 -1q-264 0 -416 138t-152 416v946h358v-954q0 -133 47.5 -199.5t162.5 -66.5t163.5 66.5t48.5 199.5v954h357v-946q0 -195 -76.5 -321t-215.5 -184
q-28 -23 -67 -64.5t-68.5 -85.5t-29.5 -75q0 -36 28.5 -48t66.5 -12q18 0 37.5 2t36.5 4z" />
    <glyph glyph-name="Uring" unicode="&#x16e;" horiz-adv-x="1369" 
d="M1253 529q0 -278 -152.5 -416t-416.5 -138t-416 138t-152 416v946h358v-954q0 -133 47.5 -199.5t162.5 -66.5t163.5 66.5t48.5 199.5v954h357v-946zM685 1516q-67 0 -121.5 32.5t-87 87.5t-32.5 121t32.5 121t87 87.5t121.5 32.5q66 0 120.5 -32.5t87.5 -87.5t33 -121
t-33 -121t-87.5 -87.5t-120.5 -32.5zM685 1668q37 0 63 26t26 63q0 38 -26 64t-63 26q-38 0 -64 -26t-26 -64q0 -37 26 -63t64 -26z" />
    <glyph glyph-name="Utilde" unicode="&#x168;" horiz-adv-x="1369" 
d="M1253 529q0 -278 -152.5 -416t-416.5 -138t-416 138t-152 416v946h358v-954q0 -133 47.5 -199.5t162.5 -66.5t163.5 66.5t48.5 199.5v954h357v-946zM1040 1794q0 -58 -23 -115.5t-69.5 -95.5t-118.5 -38q-57 0 -93.5 22t-58.5 42q-22 21 -42 35.5t-46 14.5q-64 0 -65 -95
h-177q0 59 24 116.5t72.5 96t122.5 38.5q51 0 88 -22t59 -42q23 -21 45.5 -35.5t46.5 -14.5q58 0 59 93h176z" />
    <glyph glyph-name="uni1E78" unicode="&#x1e78;" horiz-adv-x="1369" 
d="M1253 529q0 -278 -152.5 -416t-416.5 -138t-416 138t-152 416v946h358v-954q0 -133 47.5 -199.5t162.5 -66.5t163.5 66.5t48.5 199.5v954h357v-946zM1040 1794q0 -58 -23 -115.5t-69.5 -95.5t-118.5 -38q-57 0 -93.5 22t-58.5 42q-22 21 -42 35.5t-46 14.5q-64 0 -65 -95
h-177q0 59 24 116.5t72.5 96t122.5 38.5q51 0 88 -22t59 -42q23 -21 45.5 -35.5t46.5 -14.5q58 0 59 93h176zM503 1904l270 215h274l-308 -215h-236z" />
    <glyph glyph-name="V" unicode="V" horiz-adv-x="1333" 
d="M400 -2l-352 1477h395l224 -1226l224 1226h395l-350 -1477h-536z" />
    <glyph glyph-name="W" unicode="W" horiz-adv-x="1943" 
d="M275 0l-210 1475h367l123 -1215l197 1215h440l196 -1215l123 1215h367l-210 -1475h-546l-150 1104l-150 -1104h-547z" />
    <glyph glyph-name="Wacute" unicode="&#x1e82;" horiz-adv-x="1943" 
d="M275 0l-210 1475h367l123 -1215l197 1215h440l196 -1215l123 1215h367l-210 -1475h-546l-150 1104l-150 -1104h-547zM793 1561l270 215h274l-308 -215h-236z" />
    <glyph glyph-name="Wcircumflex" unicode="&#x174;" horiz-adv-x="1943" 
d="M275 0l-210 1475h367l123 -1215l197 1215h440l196 -1215l123 1215h367l-210 -1475h-546l-150 1104l-150 -1104h-547zM612 1559l250 216h226l249 -216h-223l-140 125l-140 -125h-222z" />
    <glyph glyph-name="Wdieresis" unicode="&#x1e84;" horiz-adv-x="1943" 
d="M275 0l-210 1475h367l123 -1215l197 1215h440l196 -1215l123 1215h367l-210 -1475h-546l-150 1104l-150 -1104h-547zM718 1536q-73 0 -128 38.5t-55 109.5t55 109t128 38t128.5 -38t55.5 -109q0 -72 -55.5 -110t-128.5 -38zM1232 1536q-73 0 -128 38.5t-55 109.5t55 109
t128 38t128 -38t55 -109q0 -72 -55 -110t-128 -38z" />
    <glyph glyph-name="Wgrave" unicode="&#x1e80;" horiz-adv-x="1943" 
d="M275 0l-210 1475h367l123 -1215l197 1215h440l196 -1215l123 1215h367l-210 -1475h-546l-150 1104l-150 -1104h-547zM1156 1561h-237l-307 215h274z" />
    <glyph glyph-name="X" unicode="X" horiz-adv-x="1372" 
d="M929 0l-244 498l-244 -498h-401l414 730l-402 745h401l232 -515l230 515h402l-398 -744l412 -731h-402z" />
    <glyph glyph-name="Y" unicode="Y" horiz-adv-x="1314" 
d="M1267 1475l-433 -968v-507h-356v507l-430 968h377l232 -611l231 611h379z" />
    <glyph glyph-name="Yacute" unicode="&#xdd;" horiz-adv-x="1314" 
d="M1267 1475l-433 -968v-507h-356v507l-430 968h377l232 -611l231 611h379zM476 1561l270 215h274l-308 -215h-236z" />
    <glyph glyph-name="Ycircumflex" unicode="&#x176;" horiz-adv-x="1314" 
d="M1267 1475l-433 -968v-507h-356v507l-430 968h377l232 -611l231 611h379zM296 1559l250 216h226l249 -216h-223l-140 125l-140 -125h-222z" />
    <glyph glyph-name="Ydieresis" unicode="&#x178;" horiz-adv-x="1314" 
d="M1267 1475l-433 -968v-507h-356v507l-430 968h377l232 -611l231 611h379zM401 1536q-73 0 -128 38.5t-55 109.5t55 109t128 38t128.5 -38t55.5 -109q0 -72 -55.5 -110t-128.5 -38zM915 1536q-73 0 -128 38.5t-55 109.5t55 109t128 38t128 -38t55 -109q0 -72 -55 -110
t-128 -38z" />
    <glyph glyph-name="uni1EF4" unicode="&#x1ef4;" horiz-adv-x="1314" 
d="M1267 1475l-433 -968v-507h-356v507l-430 968h377l232 -611l231 611h379zM658 -436q-81 0 -140.5 42t-59.5 120t59.5 119.5t140.5 41.5q80 0 140.5 -41.5t60.5 -119.5q0 -79 -60.5 -120.5t-140.5 -41.5z" />
    <glyph glyph-name="Ygrave" unicode="&#x1ef2;" horiz-adv-x="1314" 
d="M1267 1475l-433 -968v-507h-356v507l-430 968h377l232 -611l231 611h379zM840 1561h-237l-307 215h274z" />
    <glyph glyph-name="uni1EF6" unicode="&#x1ef6;" horiz-adv-x="1314" 
d="M1267 1475l-433 -968v-507h-356v507l-430 968h377l232 -611l231 611h379zM441 1820q113 0 211.5 -8.5t159.5 -39t61 -94.5q0 -83 -85.5 -121.5t-215.5 -38.5l-35 90q30 2 69.5 7.5t69 16.5t29.5 32q0 30 -69 39t-195 9v108z" />
    <glyph glyph-name="uni0232" unicode="&#x232;" horiz-adv-x="1314" 
d="M1267 1475l-433 -968v-507h-356v507l-430 968h377l232 -611l231 611h379zM328 1609v146h658v-146h-658z" />
    <glyph glyph-name="uni1EF8" unicode="&#x1ef8;" horiz-adv-x="1314" 
d="M1267 1475l-433 -968v-507h-356v507l-430 968h377l232 -611l231 611h379zM1013 1794q0 -58 -23 -115.5t-69.5 -95.5t-118.5 -38q-57 0 -93.5 22t-58.5 42q-22 21 -42 35.5t-46 14.5q-64 0 -65 -95h-177q0 59 24 116.5t72.5 96t122.5 38.5q51 0 88 -22t59 -42
q23 -21 45.5 -35.5t46.5 -14.5q58 0 59 93h176z" />
    <glyph glyph-name="Z" unicode="Z" horiz-adv-x="1190" 
d="M482 271h617v-271h-1017v232l627 973h-581v270h980v-229l-626 -973v-2z" />
    <glyph glyph-name="Zacute" unicode="&#x179;" horiz-adv-x="1190" 
d="M482 271h617v-271h-1017v232l627 973h-581v270h980v-229l-626 -973v-2zM419 1561l270 215h274l-308 -215h-236z" />
    <glyph glyph-name="Zcaron" unicode="&#x17d;" horiz-adv-x="1190" 
d="M482 271h617v-271h-1017v232l627 973h-581v270h980v-229l-626 -973v-2zM238 1775h222l140 -124l140 124h223l-249 -216h-226z" />
    <glyph glyph-name="Zdotaccent" unicode="&#x17b;" horiz-adv-x="1190" 
d="M482 271h617v-271h-1017v232l627 973h-581v270h980v-229l-626 -973v-2zM603 1560q-80 0 -140 42t-60 119q0 78 60 119.5t140 41.5q81 0 141 -41.5t60 -119.5t-60 -119.5t-141 -41.5z" />
    <glyph glyph-name="uni1E92" unicode="&#x1e92;" horiz-adv-x="1190" 
d="M482 271h617v-271h-1017v232l627 973h-581v270h980v-229l-626 -973v-2zM601 -435q-81 0 -140.5 42t-59.5 120t59.5 119.5t140.5 41.5q80 0 140.5 -41.5t60.5 -119.5q0 -79 -60.5 -120.5t-140.5 -41.5z" />
    <glyph glyph-name="a" unicode="a" horiz-adv-x="1268" 
d="M467 -23q-173 0 -286 81.5t-113 231.5q0 115 65 187t169 109t220 48q168 16 229.5 28.5t61.5 43.5v2q0 48 -50.5 78t-138.5 30q-188 0 -188 -135h-352q0 131 72.5 220.5t195.5 135.5t275 46q143 0 267 -43t200.5 -131t76.5 -224v-436q0 -43 2 -82.5t11 -71.5
q11 -36 27.5 -61t26.5 -34h-349q-8 8 -24 31t-26 53q-5 13 -8 26q-61 -64 -157.5 -98.5t-206.5 -34.5zM569 236q58 0 112 21.5t91.5 69.5t44.5 128q-52 -13 -109.5 -22t-112.5 -14q-85 -9 -127 -29t-42 -66q0 -88 143 -88z" />
    <glyph glyph-name="a.ss01" horiz-adv-x="1350" 
d="M564 -25q-133 0 -248.5 63t-186.5 188t-71 312q0 178 73 299.5t189 183.5t244 62q194 0 328 -141v120h357v-1062h-357v111q-64 -66 -149 -101t-179 -35zM671 273q56 0 106.5 24t82.5 72.5t32 123.5v78q0 75 -32.5 122t-83 70t-105.5 23q-59 0 -113 -25t-88.5 -80
t-34.5 -147q0 -91 34.5 -148.5t88.5 -85t113 -27.5z" />
    <glyph glyph-name="aacute" unicode="&#xe1;" horiz-adv-x="1268" 
d="M467 -23q-173 0 -286 81.5t-113 231.5q0 115 65 187t169 109t220 48q168 16 229.5 28.5t61.5 43.5v2q0 48 -50.5 78t-138.5 30q-188 0 -188 -135h-352q0 131 72.5 220.5t195.5 135.5t275 46q143 0 267 -43t200.5 -131t76.5 -224v-436q0 -43 2 -82.5t11 -71.5
q11 -36 27.5 -61t26.5 -34h-349q-8 8 -24 31t-26 53q-5 13 -8 26q-61 -64 -157.5 -98.5t-206.5 -34.5zM569 236q58 0 112 21.5t91.5 69.5t44.5 128q-52 -13 -109.5 -22t-112.5 -14q-85 -9 -127 -29t-42 -66q0 -88 143 -88zM464 1194l237 281h264l-276 -281h-225z" />
    <glyph glyph-name="aacute.ss01" horiz-adv-x="1350" 
d="M564 -25q-133 0 -248.5 63t-186.5 188t-71 312q0 178 73 299.5t189 183.5t244 62q194 0 328 -141v120h357v-1062h-357v111q-64 -66 -149 -101t-179 -35zM671 273q56 0 106.5 24t82.5 72.5t32 123.5v78q0 75 -32.5 122t-83 70t-105.5 23q-59 0 -113 -25t-88.5 -80
t-34.5 -147q0 -91 34.5 -148.5t88.5 -85t113 -27.5zM488 1194l237 281h264l-276 -281h-225z" />
    <glyph glyph-name="abreve" unicode="&#x103;" horiz-adv-x="1268" 
d="M467 -23q-173 0 -286 81.5t-113 231.5q0 115 65 187t169 109t220 48q168 16 229.5 28.5t61.5 43.5v2q0 48 -50.5 78t-138.5 30q-188 0 -188 -135h-352q0 131 72.5 220.5t195.5 135.5t275 46q143 0 267 -43t200.5 -131t76.5 -224v-436q0 -43 2 -82.5t11 -71.5
q11 -36 27.5 -61t26.5 -34h-349q-8 8 -24 31t-26 53q-5 13 -8 26q-61 -64 -157.5 -98.5t-206.5 -34.5zM569 236q58 0 112 21.5t91.5 69.5t44.5 128q-52 -13 -109.5 -22t-112.5 -14q-85 -9 -127 -29t-42 -66q0 -88 143 -88zM339 1495h206q0 -60 26 -99.5t74 -39.5
q49 0 74.5 39.5t25.5 99.5h207q0 -131 -87 -201.5t-220 -70.5t-219.5 70.5t-86.5 201.5z" />
    <glyph glyph-name="abreve.ss01" horiz-adv-x="1350" 
d="M564 -25q-133 0 -248.5 63t-186.5 188t-71 312q0 178 73 299.5t189 183.5t244 62q194 0 328 -141v120h357v-1062h-357v111q-64 -66 -149 -101t-179 -35zM671 273q56 0 106.5 24t82.5 72.5t32 123.5v78q0 75 -32.5 122t-83 70t-105.5 23q-59 0 -113 -25t-88.5 -80
t-34.5 -147q0 -91 34.5 -148.5t88.5 -85t113 -27.5zM363 1495h206q0 -60 26 -99.5t74 -39.5q49 0 74.5 39.5t25.5 99.5h207q0 -131 -87 -201.5t-220 -70.5t-219.5 70.5t-86.5 201.5z" />
    <glyph glyph-name="uni1EAF" unicode="&#x1eaf;" horiz-adv-x="1268" 
d="M467 -23q-173 0 -286 81.5t-113 231.5q0 115 65 187t169 109t220 48q168 16 229.5 28.5t61.5 43.5v2q0 48 -50.5 78t-138.5 30q-188 0 -188 -135h-352q0 131 72.5 220.5t195.5 135.5t275 46q143 0 267 -43t200.5 -131t76.5 -224v-436q0 -43 2 -82.5t11 -71.5
q11 -36 27.5 -61t26.5 -34h-349q-8 8 -24 31t-26 53q-5 13 -8 26q-61 -64 -157.5 -98.5t-206.5 -34.5zM569 236q58 0 112 21.5t91.5 69.5t44.5 128q-52 -13 -109.5 -22t-112.5 -14q-85 -9 -127 -29t-42 -66q0 -88 143 -88zM518 1530l270 215h274l-308 -215h-236zM339 1495
h206q0 -60 26 -99.5t74 -39.5q49 0 74.5 39.5t25.5 99.5h207q0 -131 -87 -201.5t-220 -70.5t-219.5 70.5t-86.5 201.5z" />
    <glyph glyph-name="uni1EAF.ss01" horiz-adv-x="1350" 
d="M564 -25q-133 0 -248.5 63t-186.5 188t-71 312q0 178 73 299.5t189 183.5t244 62q194 0 328 -141v120h357v-1062h-357v111q-64 -66 -149 -101t-179 -35zM671 273q56 0 106.5 24t82.5 72.5t32 123.5v78q0 75 -32.5 122t-83 70t-105.5 23q-59 0 -113 -25t-88.5 -80
t-34.5 -147q0 -91 34.5 -148.5t88.5 -85t113 -27.5zM541 1530l270 215h274l-308 -215h-236zM362 1495h206q0 -60 26 -99.5t74 -39.5q49 0 74.5 39.5t25.5 99.5h207q0 -131 -87 -201.5t-220 -70.5t-219.5 70.5t-86.5 201.5z" />
    <glyph glyph-name="uni1EB7" unicode="&#x1eb7;" horiz-adv-x="1268" 
d="M467 -23q-173 0 -286 81.5t-113 231.5q0 115 65 187t169 109t220 48q168 16 229.5 28.5t61.5 43.5v2q0 48 -50.5 78t-138.5 30q-188 0 -188 -135h-352q0 131 72.5 220.5t195.5 135.5t275 46q143 0 267 -43t200.5 -131t76.5 -224v-436q0 -43 2 -82.5t11 -71.5
q11 -36 27.5 -61t26.5 -34h-349q-8 8 -24 31t-26 53q-5 13 -8 26q-61 -64 -157.5 -98.5t-206.5 -34.5zM569 236q58 0 112 21.5t91.5 69.5t44.5 128q-52 -13 -109.5 -22t-112.5 -14q-85 -9 -127 -29t-42 -66q0 -88 143 -88zM611 -434q-81 0 -140.5 42t-59.5 119
q0 78 59.5 120t140.5 42q80 0 140.5 -42t60.5 -120t-60.5 -119.5t-140.5 -41.5zM339 1495h206q0 -60 26 -99.5t74 -39.5q49 0 74.5 39.5t25.5 99.5h207q0 -131 -87 -201.5t-220 -70.5t-219.5 70.5t-86.5 201.5z" />
    <glyph glyph-name="uni1EB7.ss01" horiz-adv-x="1350" 
d="M564 -25q-133 0 -248.5 63t-186.5 188t-71 312q0 178 73 299.5t189 183.5t244 62q194 0 328 -141v120h357v-1062h-357v111q-64 -66 -149 -101t-179 -35zM671 273q56 0 106.5 24t82.5 72.5t32 123.5v78q0 75 -32.5 122t-83 70t-105.5 23q-59 0 -113 -25t-88.5 -80
t-34.5 -147q0 -91 34.5 -148.5t88.5 -85t113 -27.5zM675 -434q-81 0 -140.5 42t-59.5 119q0 78 59.5 120t140.5 42q80 0 140.5 -42t60.5 -120t-60.5 -119.5t-140.5 -41.5zM363 1495h206q0 -60 26 -99.5t74 -39.5q49 0 74.5 39.5t25.5 99.5h207q0 -131 -87 -201.5t-220 -70.5
t-219.5 70.5t-86.5 201.5z" />
    <glyph glyph-name="uni1EB1" unicode="&#x1eb1;" horiz-adv-x="1268" 
d="M467 -23q-173 0 -286 81.5t-113 231.5q0 115 65 187t169 109t220 48q168 16 229.5 28.5t61.5 43.5v2q0 48 -50.5 78t-138.5 30q-188 0 -188 -135h-352q0 131 72.5 220.5t195.5 135.5t275 46q143 0 267 -43t200.5 -131t76.5 -224v-436q0 -43 2 -82.5t11 -71.5
q11 -36 27.5 -61t26.5 -34h-349q-8 8 -24 31t-26 53q-5 13 -8 26q-61 -64 -157.5 -98.5t-206.5 -34.5zM569 236q58 0 112 21.5t91.5 69.5t44.5 128q-52 -13 -109.5 -22t-112.5 -14q-85 -9 -127 -29t-42 -66q0 -88 143 -88zM777 1530h-237l-307 215h274zM337 1495h206
q0 -60 26.5 -99.5t74.5 -39.5q49 0 74.5 39.5t25.5 99.5h206q0 -131 -87 -201.5t-219 -70.5q-133 0 -220 70.5t-87 201.5z" />
    <glyph glyph-name="uni1EB1.ss01" horiz-adv-x="1350" 
d="M564 -25q-133 0 -248.5 63t-186.5 188t-71 312q0 178 73 299.5t189 183.5t244 62q194 0 328 -141v120h357v-1062h-357v111q-64 -66 -149 -101t-179 -35zM671 273q56 0 106.5 24t82.5 72.5t32 123.5v78q0 75 -32.5 122t-83 70t-105.5 23q-59 0 -113 -25t-88.5 -80
t-34.5 -147q0 -91 34.5 -148.5t88.5 -85t113 -27.5zM801 1530h-237l-307 215h274zM361 1495h206q0 -60 26.5 -99.5t74.5 -39.5q49 0 74.5 39.5t25.5 99.5h206q0 -131 -87 -201.5t-219 -70.5q-133 0 -220 70.5t-87 201.5z" />
    <glyph glyph-name="uni1EB3" unicode="&#x1eb3;" horiz-adv-x="1268" 
d="M467 -23q-173 0 -286 81.5t-113 231.5q0 115 65 187t169 109t220 48q168 16 229.5 28.5t61.5 43.5v2q0 48 -50.5 78t-138.5 30q-188 0 -188 -135h-352q0 131 72.5 220.5t195.5 135.5t275 46q143 0 267 -43t200.5 -131t76.5 -224v-436q0 -43 2 -82.5t11 -71.5
q11 -36 27.5 -61t26.5 -34h-349q-8 8 -24 31t-26 53q-5 13 -8 26q-61 -64 -157.5 -98.5t-206.5 -34.5zM569 236q58 0 112 21.5t91.5 69.5t44.5 128q-52 -13 -109.5 -22t-112.5 -14q-85 -9 -127 -29t-42 -66q0 -88 143 -88zM484 1866q113 0 212 -8.5t160 -39t61 -94.5
q0 -83 -85.5 -121.5t-216.5 -38.5l-35 90q31 2 70 7.5t68.5 16.5t29.5 32q0 30 -68.5 39t-195.5 9v108zM339 1495h206q0 -60 26 -99.5t74 -39.5q49 0 74.5 39.5t25.5 99.5h207q0 -131 -87 -201.5t-220 -70.5t-219.5 70.5t-86.5 201.5z" />
    <glyph glyph-name="uni1EB3.ss01" horiz-adv-x="1350" 
d="M564 -25q-133 0 -248.5 63t-186.5 188t-71 312q0 178 73 299.5t189 183.5t244 62q194 0 328 -141v120h357v-1062h-357v111q-64 -66 -149 -101t-179 -35zM671 273q56 0 106.5 24t82.5 72.5t32 123.5v78q0 75 -32.5 122t-83 70t-105.5 23q-59 0 -113 -25t-88.5 -80
t-34.5 -147q0 -91 34.5 -148.5t88.5 -85t113 -27.5zM508 1866q113 0 212 -8.5t160 -39t61 -94.5q0 -83 -85.5 -121.5t-216.5 -38.5l-35 90q31 2 70 7.5t68.5 16.5t29.5 32q0 30 -68.5 39t-195.5 9v108zM363 1495h206q0 -60 26 -99.5t74 -39.5q49 0 74.5 39.5t25.5 99.5h207
q0 -131 -87 -201.5t-220 -70.5t-219.5 70.5t-86.5 201.5z" />
    <glyph glyph-name="uni1EB5" unicode="&#x1eb5;" horiz-adv-x="1268" 
d="M467 -23q-173 0 -286 81.5t-113 231.5q0 115 65 187t169 109t220 48q168 16 229.5 28.5t61.5 43.5v2q0 48 -50.5 78t-138.5 30q-188 0 -188 -135h-352q0 131 72.5 220.5t195.5 135.5t275 46q143 0 267 -43t200.5 -131t76.5 -224v-436q0 -43 2 -82.5t11 -71.5
q11 -36 27.5 -61t26.5 -34h-349q-8 8 -24 31t-26 53q-5 13 -8 26q-61 -64 -157.5 -98.5t-206.5 -34.5zM569 236q58 0 112 21.5t91.5 69.5t44.5 128q-52 -13 -109.5 -22t-112.5 -14q-85 -9 -127 -29t-42 -66q0 -88 143 -88zM1000 1814q0 -58 -23 -115.5t-70 -95.5t-119 -38
q-57 0 -93.5 21.5t-57.5 42.5t-41 35.5t-46 14.5q-66 0 -67 -95h-176q0 59 24 116.5t72.5 96t122.5 38.5q51 0 88 -22t59 -42q22 -21 45 -35.5t47 -14.5q57 0 58 93h177zM338 1495h206q0 -60 26.5 -99.5t74.5 -39.5q49 0 74.5 39.5t25.5 99.5h206q0 -131 -87 -201.5
t-219 -70.5q-133 0 -220 70.5t-87 201.5z" />
    <glyph glyph-name="uni1EB5.ss01" horiz-adv-x="1350" 
d="M564 -25q-133 0 -248.5 63t-186.5 188t-71 312q0 178 73 299.5t189 183.5t244 62q194 0 328 -141v120h357v-1062h-357v111q-64 -66 -149 -101t-179 -35zM671 273q56 0 106.5 24t82.5 72.5t32 123.5v78q0 75 -32.5 122t-83 70t-105.5 23q-59 0 -113 -25t-88.5 -80
t-34.5 -147q0 -91 34.5 -148.5t88.5 -85t113 -27.5zM1024 1814q0 -58 -23 -115.5t-70 -95.5t-119 -38q-57 0 -93.5 21.5t-57.5 42.5t-41 35.5t-46 14.5q-66 0 -67 -95h-176q0 59 24 116.5t72.5 96t122.5 38.5q51 0 88 -22t59 -42q22 -21 45 -35.5t47 -14.5q57 0 58 93h177z
M362 1495h206q0 -60 26.5 -99.5t74.5 -39.5q49 0 74.5 39.5t25.5 99.5h206q0 -131 -87 -201.5t-219 -70.5q-133 0 -220 70.5t-87 201.5z" />
    <glyph glyph-name="uni01CE" unicode="&#x1ce;" horiz-adv-x="1268" 
d="M467 -23q-173 0 -286 81.5t-113 231.5q0 115 65 187t169 109t220 48q168 16 229.5 28.5t61.5 43.5v2q0 48 -50.5 78t-138.5 30q-188 0 -188 -135h-352q0 131 72.5 220.5t195.5 135.5t275 46q143 0 267 -43t200.5 -131t76.5 -224v-436q0 -43 2 -82.5t11 -71.5
q11 -36 27.5 -61t26.5 -34h-349q-8 8 -24 31t-26 53q-5 13 -8 26q-61 -64 -157.5 -98.5t-206.5 -34.5zM569 236q58 0 112 21.5t91.5 69.5t44.5 128q-52 -13 -109.5 -22t-112.5 -14q-85 -9 -127 -29t-42 -66q0 -88 143 -88zM284 1475h221l139 -163l141 163h222l-249 -281
h-224z" />
    <glyph glyph-name="uni01CE.ss01" horiz-adv-x="1350" 
d="M564 -25q-133 0 -248.5 63t-186.5 188t-71 312q0 178 73 299.5t189 183.5t244 62q194 0 328 -141v120h357v-1062h-357v111q-64 -66 -149 -101t-179 -35zM671 273q56 0 106.5 24t82.5 72.5t32 123.5v78q0 75 -32.5 122t-83 70t-105.5 23q-59 0 -113 -25t-88.5 -80
t-34.5 -147q0 -91 34.5 -148.5t88.5 -85t113 -27.5zM307 1475h221l139 -163l141 163h222l-249 -281h-224z" />
    <glyph glyph-name="acircumflex" unicode="&#xe2;" horiz-adv-x="1268" 
d="M467 -23q-173 0 -286 81.5t-113 231.5q0 115 65 187t169 109t220 48q168 16 229.5 28.5t61.5 43.5v2q0 48 -50.5 78t-138.5 30q-188 0 -188 -135h-352q0 131 72.5 220.5t195.5 135.5t275 46q143 0 267 -43t200.5 -131t76.5 -224v-436q0 -43 2 -82.5t11 -71.5
q11 -36 27.5 -61t26.5 -34h-349q-8 8 -24 31t-26 53q-5 13 -8 26q-61 -64 -157.5 -98.5t-206.5 -34.5zM569 236q58 0 112 21.5t91.5 69.5t44.5 128q-52 -13 -109.5 -22t-112.5 -14q-85 -9 -127 -29t-42 -66q0 -88 143 -88zM284 1194l250 281h224l249 -281h-222l-141 163
l-139 -163h-221z" />
    <glyph glyph-name="acircumflex.ss01" horiz-adv-x="1350" 
d="M564 -25q-133 0 -248.5 63t-186.5 188t-71 312q0 178 73 299.5t189 183.5t244 62q194 0 328 -141v120h357v-1062h-357v111q-64 -66 -149 -101t-179 -35zM671 273q56 0 106.5 24t82.5 72.5t32 123.5v78q0 75 -32.5 122t-83 70t-105.5 23q-59 0 -113 -25t-88.5 -80
t-34.5 -147q0 -91 34.5 -148.5t88.5 -85t113 -27.5zM307 1194l250 281h224l249 -281h-222l-141 163l-139 -163h-221z" />
    <glyph glyph-name="uni1EA5" unicode="&#x1ea5;" horiz-adv-x="1268" 
d="M467 -23q-173 0 -286 81.5t-113 231.5q0 115 65 187t169 109t220 48q168 16 229.5 28.5t61.5 43.5v2q0 48 -50.5 78t-138.5 30q-188 0 -188 -135h-352q0 131 72.5 220.5t195.5 135.5t275 46q143 0 267 -43t200.5 -131t76.5 -224v-436q0 -43 2 -82.5t11 -71.5
q11 -36 27.5 -61t26.5 -34h-349q-8 8 -24 31t-26 53q-5 13 -8 26q-61 -64 -157.5 -98.5t-206.5 -34.5zM569 236q58 0 112 21.5t91.5 69.5t44.5 128q-52 -13 -109.5 -22t-112.5 -14q-85 -9 -127 -29t-42 -66q0 -88 143 -88zM824 1432l196 281h227l-219 -281h-204zM283 1194
l250 281h224l249 -281h-222l-141 163l-139 -163h-221z" />
    <glyph glyph-name="uni1EA5.ss01" horiz-adv-x="1350" 
d="M564 -25q-133 0 -248.5 63t-186.5 188t-71 312q0 178 73 299.5t189 183.5t244 62q194 0 328 -141v120h357v-1062h-357v111q-64 -66 -149 -101t-179 -35zM671 273q56 0 106.5 24t82.5 72.5t32 123.5v78q0 75 -32.5 122t-83 70t-105.5 23q-59 0 -113 -25t-88.5 -80
t-34.5 -147q0 -91 34.5 -148.5t88.5 -85t113 -27.5zM847 1432l196 281h227l-219 -281h-204zM306 1194l250 281h224l249 -281h-222l-141 163l-139 -163h-221z" />
    <glyph glyph-name="uni1EAD" unicode="&#x1ead;" horiz-adv-x="1268" 
d="M467 -23q-173 0 -286 81.5t-113 231.5q0 115 65 187t169 109t220 48q168 16 229.5 28.5t61.5 43.5v2q0 48 -50.5 78t-138.5 30q-188 0 -188 -135h-352q0 131 72.5 220.5t195.5 135.5t275 46q143 0 267 -43t200.5 -131t76.5 -224v-436q0 -43 2 -82.5t11 -71.5
q11 -36 27.5 -61t26.5 -34h-349q-8 8 -24 31t-26 53q-5 13 -8 26q-61 -64 -157.5 -98.5t-206.5 -34.5zM569 236q58 0 112 21.5t91.5 69.5t44.5 128q-52 -13 -109.5 -22t-112.5 -14q-85 -9 -127 -29t-42 -66q0 -88 143 -88zM611 -434q-81 0 -140.5 42t-59.5 119
q0 78 59.5 120t140.5 42q80 0 140.5 -42t60.5 -120t-60.5 -119.5t-140.5 -41.5zM284 1194l250 281h224l249 -281h-222l-141 163l-139 -163h-221z" />
    <glyph glyph-name="uni1EAD.ss01" horiz-adv-x="1350" 
d="M564 -25q-133 0 -248.5 63t-186.5 188t-71 312q0 178 73 299.5t189 183.5t244 62q194 0 328 -141v120h357v-1062h-357v111q-64 -66 -149 -101t-179 -35zM671 273q56 0 106.5 24t82.5 72.5t32 123.5v78q0 75 -32.5 122t-83 70t-105.5 23q-59 0 -113 -25t-88.5 -80
t-34.5 -147q0 -91 34.5 -148.5t88.5 -85t113 -27.5zM675 -434q-81 0 -140.5 42t-59.5 119q0 78 59.5 120t140.5 42q80 0 140.5 -42t60.5 -120t-60.5 -119.5t-140.5 -41.5zM307 1194l250 281h224l249 -281h-222l-141 163l-139 -163h-221z" />
    <glyph glyph-name="uni1EA7" unicode="&#x1ea7;" horiz-adv-x="1268" 
d="M467 -23q-173 0 -286 81.5t-113 231.5q0 115 65 187t169 109t220 48q168 16 229.5 28.5t61.5 43.5v2q0 48 -50.5 78t-138.5 30q-188 0 -188 -135h-352q0 131 72.5 220.5t195.5 135.5t275 46q143 0 267 -43t200.5 -131t76.5 -224v-436q0 -43 2 -82.5t11 -71.5
q11 -36 27.5 -61t26.5 -34h-349q-8 8 -24 31t-26 53q-5 13 -8 26q-61 -64 -157.5 -98.5t-206.5 -34.5zM569 236q58 0 112 21.5t91.5 69.5t44.5 128q-52 -13 -109.5 -22t-112.5 -14q-85 -9 -127 -29t-42 -66q0 -88 143 -88zM1106 1432h-204l-219 281h227zM285 1194l250 281
h224l249 -281h-222l-141 163l-139 -163h-221z" />
    <glyph glyph-name="uni1EA7.ss01" horiz-adv-x="1350" 
d="M564 -25q-133 0 -248.5 63t-186.5 188t-71 312q0 178 73 299.5t189 183.5t244 62q194 0 328 -141v120h357v-1062h-357v111q-64 -66 -149 -101t-179 -35zM671 273q56 0 106.5 24t82.5 72.5t32 123.5v78q0 75 -32.5 122t-83 70t-105.5 23q-59 0 -113 -25t-88.5 -80
t-34.5 -147q0 -91 34.5 -148.5t88.5 -85t113 -27.5zM1130 1432h-204l-219 281h227zM309 1194l250 281h224l249 -281h-222l-141 163l-139 -163h-221z" />
    <glyph glyph-name="uni1EA9" unicode="&#x1ea9;" horiz-adv-x="1268" 
d="M467 -23q-173 0 -286 81.5t-113 231.5q0 115 65 187t169 109t220 48q168 16 229.5 28.5t61.5 43.5v2q0 48 -50.5 78t-138.5 30q-188 0 -188 -135h-352q0 131 72.5 220.5t195.5 135.5t275 46q143 0 267 -43t200.5 -131t76.5 -224v-436q0 -43 2 -82.5t11 -71.5
q11 -36 27.5 -61t26.5 -34h-349q-8 8 -24 31t-26 53q-5 13 -8 26q-61 -64 -157.5 -98.5t-206.5 -34.5zM569 236q58 0 112 21.5t91.5 69.5t44.5 128q-52 -13 -109.5 -22t-112.5 -14q-85 -9 -127 -29t-42 -66q0 -88 143 -88zM899 1424l-30 79q26 1 61 5.5t60.5 14.5t25.5 28
q0 27 -60.5 35t-171.5 8v94q99 0 185.5 -8t140 -34t53.5 -83q0 -72 -75 -105.5t-189 -33.5zM284 1194l250 281h224l249 -281h-222l-141 163l-139 -163h-221z" />
    <glyph glyph-name="uni1EA9.ss01" horiz-adv-x="1350" 
d="M564 -25q-133 0 -248.5 63t-186.5 188t-71 312q0 178 73 299.5t189 183.5t244 62q194 0 328 -141v120h357v-1062h-357v111q-64 -66 -149 -101t-179 -35zM671 273q56 0 106.5 24t82.5 72.5t32 123.5v78q0 75 -32.5 122t-83 70t-105.5 23q-59 0 -113 -25t-88.5 -80
t-34.5 -147q0 -91 34.5 -148.5t88.5 -85t113 -27.5zM922 1424l-30 79q26 1 61 5.5t60.5 14.5t25.5 28q0 27 -60.5 35t-171.5 8v94q99 0 185.5 -8t140 -34t53.5 -83q0 -72 -75 -105.5t-189 -33.5zM307 1194l250 281h224l249 -281h-222l-141 163l-139 -163h-221z" />
    <glyph glyph-name="uni1EAB" unicode="&#x1eab;" horiz-adv-x="1268" 
d="M467 -23q-173 0 -286 81.5t-113 231.5q0 115 65 187t169 109t220 48q168 16 229.5 28.5t61.5 43.5v2q0 48 -50.5 78t-138.5 30q-188 0 -188 -135h-352q0 131 72.5 220.5t195.5 135.5t275 46q143 0 267 -43t200.5 -131t76.5 -224v-436q0 -43 2 -82.5t11 -71.5
q11 -36 27.5 -61t26.5 -34h-349q-8 8 -24 31t-26 53q-5 13 -8 26q-61 -64 -157.5 -98.5t-206.5 -34.5zM569 236q58 0 112 21.5t91.5 69.5t44.5 128q-52 -13 -109.5 -22t-112.5 -14q-85 -9 -127 -29t-42 -66q0 -88 143 -88zM785 1559q-58 0 -94 21.5t-57 41.5
q-22 21 -41.5 36t-46.5 15q-65 0 -66 -95h-177q0 59 24 116.5t72.5 96t122.5 38.5q51 0 88.5 -22t59.5 -43q22 -20 44.5 -34.5t46.5 -14.5q58 0 59 92h176q0 -58 -23 -115t-69.5 -95t-118.5 -38zM284 1194l250 281h224l249 -281h-222l-141 163l-139 -163h-221z" />
    <glyph glyph-name="uni1EAB.ss01" horiz-adv-x="1350" 
d="M564 -25q-133 0 -248.5 63t-186.5 188t-71 312q0 178 73 299.5t189 183.5t244 62q194 0 328 -141v120h357v-1062h-357v111q-64 -66 -149 -101t-179 -35zM671 273q56 0 106.5 24t82.5 72.5t32 123.5v78q0 75 -32.5 122t-83 70t-105.5 23q-59 0 -113 -25t-88.5 -80
t-34.5 -147q0 -91 34.5 -148.5t88.5 -85t113 -27.5zM808 1559q-58 0 -94 21.5t-57 41.5q-22 21 -41.5 36t-46.5 15q-65 0 -66 -95h-177q0 59 24 116.5t72.5 96t122.5 38.5q51 0 88.5 -22t59.5 -43q22 -20 44.5 -34.5t46.5 -14.5q58 0 59 92h176q0 -58 -23 -115t-69.5 -95
t-118.5 -38zM307 1194l250 281h224l249 -281h-222l-141 163l-139 -163h-221z" />
    <glyph glyph-name="uni0201" unicode="&#x201;" horiz-adv-x="1268" 
d="M467 -23q-173 0 -286 81.5t-113 231.5q0 115 65 187t169 109t220 48q168 16 229.5 28.5t61.5 43.5v2q0 48 -50.5 78t-138.5 30q-188 0 -188 -135h-352q0 131 72.5 220.5t195.5 135.5t275 46q143 0 267 -43t200.5 -131t76.5 -224v-436q0 -43 2 -82.5t11 -71.5
q11 -36 27.5 -61t26.5 -34h-349q-8 8 -24 31t-26 53q-5 13 -8 26q-61 -64 -157.5 -98.5t-206.5 -34.5zM569 236q58 0 112 21.5t91.5 69.5t44.5 128q-52 -13 -109.5 -22t-112.5 -14q-85 -9 -127 -29t-42 -66q0 -88 143 -88zM915 1194h-186l-174 281h212zM575 1194h-186
l-200 281h211z" />
    <glyph glyph-name="uni0201.ss01" horiz-adv-x="1350" 
d="M564 -25q-133 0 -248.5 63t-186.5 188t-71 312q0 178 73 299.5t189 183.5t244 62q194 0 328 -141v120h357v-1062h-357v111q-64 -66 -149 -101t-179 -35zM671 273q56 0 106.5 24t82.5 72.5t32 123.5v78q0 75 -32.5 122t-83 70t-105.5 23q-59 0 -113 -25t-88.5 -80
t-34.5 -147q0 -91 34.5 -148.5t88.5 -85t113 -27.5zM938 1194h-186l-174 281h212zM598 1194h-186l-200 281h211z" />
    <glyph glyph-name="adieresis" unicode="&#xe4;" horiz-adv-x="1268" 
d="M467 -23q-173 0 -286 81.5t-113 231.5q0 115 65 187t169 109t220 48q168 16 229.5 28.5t61.5 43.5v2q0 48 -50.5 78t-138.5 30q-188 0 -188 -135h-352q0 131 72.5 220.5t195.5 135.5t275 46q143 0 267 -43t200.5 -131t76.5 -224v-436q0 -43 2 -82.5t11 -71.5
q11 -36 27.5 -61t26.5 -34h-349q-8 8 -24 31t-26 53q-5 13 -8 26q-61 -64 -157.5 -98.5t-206.5 -34.5zM569 236q58 0 112 21.5t91.5 69.5t44.5 128q-52 -13 -109.5 -22t-112.5 -14q-85 -9 -127 -29t-42 -66q0 -88 143 -88zM386 1203q-73 0 -128 38.5t-55 109.5t55 109
t128 38t128.5 -38t55.5 -109q0 -72 -55.5 -110t-128.5 -38zM900 1203q-73 0 -128 38.5t-55 109.5t55 109t128 38t128 -38t55 -109q0 -72 -55 -110t-128 -38z" />
    <glyph glyph-name="adieresis.ss01" horiz-adv-x="1350" 
d="M564 -25q-133 0 -248.5 63t-186.5 188t-71 312q0 178 73 299.5t189 183.5t244 62q194 0 328 -141v120h357v-1062h-357v111q-64 -66 -149 -101t-179 -35zM671 273q56 0 106.5 24t82.5 72.5t32 123.5v78q0 75 -32.5 122t-83 70t-105.5 23q-59 0 -113 -25t-88.5 -80
t-34.5 -147q0 -91 34.5 -148.5t88.5 -85t113 -27.5zM410 1203q-73 0 -128 38.5t-55 109.5t55 109t128 38t128.5 -38t55.5 -109q0 -72 -55.5 -110t-128.5 -38zM924 1203q-73 0 -128 38.5t-55 109.5t55 109t128 38t128 -38t55 -109q0 -72 -55 -110t-128 -38z" />
    <glyph glyph-name="uni01DF" unicode="&#x1df;" horiz-adv-x="1268" 
d="M467 -23q-173 0 -286 81.5t-113 231.5q0 115 65 187t169 109t220 48q168 16 229.5 28.5t61.5 43.5v2q0 48 -50.5 78t-138.5 30q-188 0 -188 -135h-352q0 131 72.5 220.5t195.5 135.5t275 46q143 0 267 -43t200.5 -131t76.5 -224v-436q0 -43 2 -82.5t11 -71.5
q11 -36 27.5 -61t26.5 -34h-349q-8 8 -24 31t-26 53q-5 13 -8 26q-61 -64 -157.5 -98.5t-206.5 -34.5zM569 236q58 0 112 21.5t91.5 69.5t44.5 128q-52 -13 -109.5 -22t-112.5 -14q-85 -9 -127 -29t-42 -66q0 -88 143 -88zM386 1203q-73 0 -128 38.5t-55 109.5t55 109
t128 38t128.5 -38t55.5 -109q0 -72 -55.5 -110t-128.5 -38zM900 1203q-73 0 -128 38.5t-55 109.5t55 109t128 38t128 -38t55 -109q0 -72 -55 -110t-128 -38zM315 1633v146h658v-146h-658z" />
    <glyph glyph-name="uni01DF.ss01" horiz-adv-x="1350" 
d="M564 -25q-133 0 -248.5 63t-186.5 188t-71 312q0 178 73 299.5t189 183.5t244 62q194 0 328 -141v120h357v-1062h-357v111q-64 -66 -149 -101t-179 -35zM671 273q56 0 106.5 24t82.5 72.5t32 123.5v78q0 75 -32.5 122t-83 70t-105.5 23q-59 0 -113 -25t-88.5 -80
t-34.5 -147q0 -91 34.5 -148.5t88.5 -85t113 -27.5zM410 1203q-73 0 -128 38.5t-55 109.5t55 109t128 38t128.5 -38t55.5 -109q0 -72 -55.5 -110t-128.5 -38zM924 1203q-73 0 -128 38.5t-55 109.5t55 109t128 38t128 -38t55 -109q0 -72 -55 -110t-128 -38zM339 1633v146h658
v-146h-658z" />
    <glyph glyph-name="uni1EA1" unicode="&#x1ea1;" horiz-adv-x="1268" 
d="M467 -23q-173 0 -286 81.5t-113 231.5q0 115 65 187t169 109t220 48q168 16 229.5 28.5t61.5 43.5v2q0 48 -50.5 78t-138.5 30q-188 0 -188 -135h-352q0 131 72.5 220.5t195.5 135.5t275 46q143 0 267 -43t200.5 -131t76.5 -224v-436q0 -43 2 -82.5t11 -71.5
q11 -36 27.5 -61t26.5 -34h-349q-8 8 -24 31t-26 53q-5 13 -8 26q-61 -64 -157.5 -98.5t-206.5 -34.5zM569 236q58 0 112 21.5t91.5 69.5t44.5 128q-52 -13 -109.5 -22t-112.5 -14q-85 -9 -127 -29t-42 -66q0 -88 143 -88zM611 -434q-81 0 -140.5 42t-59.5 119
q0 78 59.5 120t140.5 42q80 0 140.5 -42t60.5 -120t-60.5 -119.5t-140.5 -41.5z" />
    <glyph glyph-name="uni1EA1.ss01" horiz-adv-x="1350" 
d="M564 -25q-133 0 -248.5 63t-186.5 188t-71 312q0 178 73 299.5t189 183.5t244 62q194 0 328 -141v120h357v-1062h-357v111q-64 -66 -149 -101t-179 -35zM671 273q56 0 106.5 24t82.5 72.5t32 123.5v78q0 75 -32.5 122t-83 70t-105.5 23q-59 0 -113 -25t-88.5 -80
t-34.5 -147q0 -91 34.5 -148.5t88.5 -85t113 -27.5zM675 -434q-81 0 -140.5 42t-59.5 119q0 78 59.5 120t140.5 42q80 0 140.5 -42t60.5 -120t-60.5 -119.5t-140.5 -41.5z" />
    <glyph glyph-name="agrave" unicode="&#xe0;" horiz-adv-x="1268" 
d="M467 -23q-173 0 -286 81.5t-113 231.5q0 115 65 187t169 109t220 48q168 16 229.5 28.5t61.5 43.5v2q0 48 -50.5 78t-138.5 30q-188 0 -188 -135h-352q0 131 72.5 220.5t195.5 135.5t275 46q143 0 267 -43t200.5 -131t76.5 -224v-436q0 -43 2 -82.5t11 -71.5
q11 -36 27.5 -61t26.5 -34h-349q-8 8 -24 31t-26 53q-5 13 -8 26q-61 -64 -157.5 -98.5t-206.5 -34.5zM569 236q58 0 112 21.5t91.5 69.5t44.5 128q-52 -13 -109.5 -22t-112.5 -14q-85 -9 -127 -29t-42 -66q0 -88 143 -88zM823 1187h-225l-276 281h264z" />
    <glyph glyph-name="agrave.ss01" horiz-adv-x="1350" 
d="M564 -25q-133 0 -248.5 63t-186.5 188t-71 312q0 178 73 299.5t189 183.5t244 62q194 0 328 -141v120h357v-1062h-357v111q-64 -66 -149 -101t-179 -35zM671 273q56 0 106.5 24t82.5 72.5t32 123.5v78q0 75 -32.5 122t-83 70t-105.5 23q-59 0 -113 -25t-88.5 -80
t-34.5 -147q0 -91 34.5 -148.5t88.5 -85t113 -27.5zM846 1187h-225l-276 281h264z" />
    <glyph glyph-name="uni1EA3" unicode="&#x1ea3;" horiz-adv-x="1268" 
d="M467 -23q-173 0 -286 81.5t-113 231.5q0 115 65 187t169 109t220 48q168 16 229.5 28.5t61.5 43.5v2q0 48 -50.5 78t-138.5 30q-188 0 -188 -135h-352q0 131 72.5 220.5t195.5 135.5t275 46q143 0 267 -43t200.5 -131t76.5 -224v-436q0 -43 2 -82.5t11 -71.5
q11 -36 27.5 -61t26.5 -34h-349q-8 8 -24 31t-26 53q-5 13 -8 26q-61 -64 -157.5 -98.5t-206.5 -34.5zM569 236q58 0 112 21.5t91.5 69.5t44.5 128q-52 -13 -109.5 -22t-112.5 -14q-85 -9 -127 -29t-42 -66q0 -88 143 -88zM428 1513q113 0 211.5 -9t159.5 -39t61 -94
q0 -83 -85.5 -122t-215.5 -39l-35 91q30 2 69.5 7t69 16.5t29.5 32.5q0 30 -69 39t-195 9v108z" />
    <glyph glyph-name="uni1EA3.ss01" horiz-adv-x="1350" 
d="M564 -25q-133 0 -248.5 63t-186.5 188t-71 312q0 178 73 299.5t189 183.5t244 62q194 0 328 -141v120h357v-1062h-357v111q-64 -66 -149 -101t-179 -35zM671 273q56 0 106.5 24t82.5 72.5t32 123.5v78q0 75 -32.5 122t-83 70t-105.5 23q-59 0 -113 -25t-88.5 -80
t-34.5 -147q0 -91 34.5 -148.5t88.5 -85t113 -27.5zM452 1513q113 0 211.5 -9t159.5 -39t61 -94q0 -83 -85.5 -122t-215.5 -39l-35 91q30 2 69.5 7t69 16.5t29.5 32.5q0 30 -69 39t-195 9v108z" />
    <glyph glyph-name="uni0203" unicode="&#x203;" horiz-adv-x="1268" 
d="M467 -23q-173 0 -286 81.5t-113 231.5q0 115 65 187t169 109t220 48q168 16 229.5 28.5t61.5 43.5v2q0 48 -50.5 78t-138.5 30q-188 0 -188 -135h-352q0 131 72.5 220.5t195.5 135.5t275 46q143 0 267 -43t200.5 -131t76.5 -224v-436q0 -43 2 -82.5t11 -71.5
q11 -36 27.5 -61t26.5 -34h-349q-8 8 -24 31t-26 53q-5 13 -8 26q-61 -64 -157.5 -98.5t-206.5 -34.5zM569 236q58 0 112 21.5t91.5 69.5t44.5 128q-52 -13 -109.5 -22t-112.5 -14q-85 -9 -127 -29t-42 -66q0 -88 143 -88zM338 1227q0 131 87 196.5t220 65.5
q132 0 219 -65.5t87 -196.5h-206q0 60 -25.5 94t-74.5 34q-48 0 -74.5 -34t-26.5 -94h-206z" />
    <glyph glyph-name="uni0203.ss01" horiz-adv-x="1350" 
d="M564 -25q-133 0 -248.5 63t-186.5 188t-71 312q0 178 73 299.5t189 183.5t244 62q194 0 328 -141v120h357v-1062h-357v111q-64 -66 -149 -101t-179 -35zM671 273q56 0 106.5 24t82.5 72.5t32 123.5v78q0 75 -32.5 122t-83 70t-105.5 23q-59 0 -113 -25t-88.5 -80
t-34.5 -147q0 -91 34.5 -148.5t88.5 -85t113 -27.5zM362 1227q0 131 87 196.5t220 65.5q132 0 219 -65.5t87 -196.5h-206q0 60 -25.5 94t-74.5 34q-48 0 -74.5 -34t-26.5 -94h-206z" />
    <glyph glyph-name="amacron" unicode="&#x101;" horiz-adv-x="1268" 
d="M467 -23q-173 0 -286 81.5t-113 231.5q0 115 65 187t169 109t220 48q168 16 229.5 28.5t61.5 43.5v2q0 48 -50.5 78t-138.5 30q-188 0 -188 -135h-352q0 131 72.5 220.5t195.5 135.5t275 46q143 0 267 -43t200.5 -131t76.5 -224v-436q0 -43 2 -82.5t11 -71.5
q11 -36 27.5 -61t26.5 -34h-349q-8 8 -24 31t-26 53q-5 13 -8 26q-61 -64 -157.5 -98.5t-206.5 -34.5zM569 236q58 0 112 21.5t91.5 69.5t44.5 128q-52 -13 -109.5 -22t-112.5 -14q-85 -9 -127 -29t-42 -66q0 -88 143 -88zM315 1276v146h658v-146h-658z" />
    <glyph glyph-name="amacron.ss01" horiz-adv-x="1350" 
d="M564 -25q-133 0 -248.5 63t-186.5 188t-71 312q0 178 73 299.5t189 183.5t244 62q194 0 328 -141v120h357v-1062h-357v111q-64 -66 -149 -101t-179 -35zM671 273q56 0 106.5 24t82.5 72.5t32 123.5v78q0 75 -32.5 122t-83 70t-105.5 23q-59 0 -113 -25t-88.5 -80
t-34.5 -147q0 -91 34.5 -148.5t88.5 -85t113 -27.5zM339 1276v146h658v-146h-658z" />
    <glyph glyph-name="aogonek" unicode="&#x105;" horiz-adv-x="1268" 
d="M467 -23q-173 0 -286 81.5t-113 231.5q0 115 65 187t169 109t220 48q168 16 229.5 28.5t61.5 43.5v2q0 48 -50.5 78t-138.5 30q-188 0 -188 -135h-352q0 131 72.5 220.5t195.5 135.5t275 46q143 0 267 -43t200.5 -131t76.5 -224v-436q0 -43 2 -82.5t11 -71.5
q11 -36 27.5 -61t26.5 -34h-349q-8 8 -24 31t-26 53q-5 13 -8 26q-61 -64 -157.5 -98.5t-206.5 -34.5zM569 236q58 0 112 21.5t91.5 69.5t44.5 128q-52 -13 -109.5 -22t-112.5 -14q-85 -9 -127 -29t-42 -66q0 -88 143 -88zM1238 -283v-168q-20 -2 -44 -3.5t-50 -1.5
q-107 0 -185.5 41.5t-78.5 135.5q0 56 34 112t78 100.5t76 66.5h170q-27 -22 -67 -64.5t-71 -87.5t-31 -77q0 -36 28.5 -48t66.5 -12q19 0 38.5 2t35.5 4z" />
    <glyph glyph-name="aogonek.ss01" horiz-adv-x="1350" 
d="M564 -25q-133 0 -248.5 63t-186.5 188t-71 312q0 178 73 299.5t189 183.5t244 62q194 0 328 -141v120h357v-1062h-357v111q-64 -66 -149 -101t-179 -35zM671 273q56 0 106.5 24t82.5 72.5t32 123.5v78q0 75 -32.5 122t-83 70t-105.5 23q-59 0 -113 -25t-88.5 -80
t-34.5 -147q0 -91 34.5 -148.5t88.5 -85t113 -27.5zM1249 -283v-168q-20 -2 -44 -3.5t-50 -1.5q-107 0 -185.5 41.5t-78.5 135.5q0 56 34 112t78 100.5t76 66.5h170q-27 -22 -67 -64.5t-71 -87.5t-31 -77q0 -36 28.5 -48t66.5 -12q19 0 38.5 2t35.5 4z" />
    <glyph glyph-name="aring" unicode="&#xe5;" horiz-adv-x="1268" 
d="M467 -23q-173 0 -286 81.5t-113 231.5q0 115 65 187t169 109t220 48q168 16 229.5 28.5t61.5 43.5v2q0 48 -50.5 78t-138.5 30q-188 0 -188 -135h-352q0 131 72.5 220.5t195.5 135.5t275 46q143 0 267 -43t200.5 -131t76.5 -224v-436q0 -43 2 -82.5t11 -71.5
q11 -36 27.5 -61t26.5 -34h-349q-8 8 -24 31t-26 53q-5 13 -8 26q-61 -64 -157.5 -98.5t-206.5 -34.5zM569 236q58 0 112 21.5t91.5 69.5t44.5 128q-52 -13 -109.5 -22t-112.5 -14q-85 -9 -127 -29t-42 -66q0 -88 143 -88zM645 1138q-67 0 -121.5 33t-87 87.5t-32.5 120.5
q0 67 32.5 121.5t87 87t121.5 32.5q66 0 120.5 -32.5t87.5 -87t33 -121.5q0 -66 -33 -120.5t-87.5 -87.5t-120.5 -33zM645 1290q37 0 63 26t26 63q0 38 -26 64t-63 26q-38 0 -64 -26t-26 -64q0 -37 26 -63t64 -26z" />
    <glyph glyph-name="aring.ss01" horiz-adv-x="1350" 
d="M564 -25q-133 0 -248.5 63t-186.5 188t-71 312q0 178 73 299.5t189 183.5t244 62q194 0 328 -141v120h357v-1062h-357v111q-64 -66 -149 -101t-179 -35zM671 273q56 0 106.5 24t82.5 72.5t32 123.5v78q0 75 -32.5 122t-83 70t-105.5 23q-59 0 -113 -25t-88.5 -80
t-34.5 -147q0 -91 34.5 -148.5t88.5 -85t113 -27.5zM669 1138q-67 0 -121.5 33t-87 87.5t-32.5 120.5q0 67 32.5 121.5t87 87t121.5 32.5q66 0 120.5 -32.5t87.5 -87t33 -121.5q0 -66 -33 -120.5t-87.5 -87.5t-120.5 -33zM669 1290q37 0 63 26t26 63q0 38 -26 64t-63 26
q-38 0 -64 -26t-26 -64q0 -37 26 -63t64 -26z" />
    <glyph glyph-name="aringacute" unicode="&#x1fb;" horiz-adv-x="1268" 
d="M467 -23q-173 0 -286 81.5t-113 231.5q0 115 65 187t169 109t220 48q168 16 229.5 28.5t61.5 43.5v2q0 48 -50.5 78t-138.5 30q-188 0 -188 -135h-352q0 131 72.5 220.5t195.5 135.5t275 46q143 0 267 -43t200.5 -131t76.5 -224v-436q0 -43 2 -82.5t11 -71.5
q11 -36 27.5 -61t26.5 -34h-349q-8 8 -24 31t-26 53q-5 13 -8 26q-61 -64 -157.5 -98.5t-206.5 -34.5zM569 236q58 0 112 21.5t91.5 69.5t44.5 128q-52 -13 -109.5 -22t-112.5 -14q-85 -9 -127 -29t-42 -66q0 -88 143 -88zM645 1138q-67 0 -121.5 33t-87 87.5t-32.5 120.5
q0 67 32.5 121.5t87 87t121.5 32.5q66 0 120.5 -32.5t87.5 -87t33 -121.5q0 -66 -33 -120.5t-87.5 -87.5t-120.5 -33zM645 1290q37 0 63 26t26 63q0 38 -26 64t-63 26q-38 0 -64 -26t-26 -64q0 -37 26 -63t64 -26zM480 1723l237 281h264l-276 -281h-225z" />
    <glyph glyph-name="aringacute.ss01" horiz-adv-x="1350" 
d="M564 -25q-133 0 -248.5 63t-186.5 188t-71 312q0 178 73 299.5t189 183.5t244 62q194 0 328 -141v120h357v-1062h-357v111q-64 -66 -149 -101t-179 -35zM671 273q56 0 106.5 24t82.5 72.5t32 123.5v78q0 75 -32.5 122t-83 70t-105.5 23q-59 0 -113 -25t-88.5 -80
t-34.5 -147q0 -91 34.5 -148.5t88.5 -85t113 -27.5zM669 1138q-67 0 -121.5 33t-87 87.5t-32.5 120.5q0 67 32.5 121.5t87 87t121.5 32.5q66 0 120.5 -32.5t87.5 -87t33 -121.5q0 -66 -33 -120.5t-87.5 -87.5t-120.5 -33zM669 1290q37 0 63 26t26 63q0 38 -26 64t-63 26
q-38 0 -64 -26t-26 -64q0 -37 26 -63t64 -26zM528 1723l237 281h264l-276 -281h-225z" />
    <glyph glyph-name="atilde" unicode="&#xe3;" horiz-adv-x="1268" 
d="M467 -23q-173 0 -286 81.5t-113 231.5q0 115 65 187t169 109t220 48q168 16 229.5 28.5t61.5 43.5v2q0 48 -50.5 78t-138.5 30q-188 0 -188 -135h-352q0 131 72.5 220.5t195.5 135.5t275 46q143 0 267 -43t200.5 -131t76.5 -224v-436q0 -43 2 -82.5t11 -71.5
q11 -36 27.5 -61t26.5 -34h-349q-8 8 -24 31t-26 53q-5 13 -8 26q-61 -64 -157.5 -98.5t-206.5 -34.5zM569 236q58 0 112 21.5t91.5 69.5t44.5 128q-52 -13 -109.5 -22t-112.5 -14q-85 -9 -127 -29t-42 -66q0 -88 143 -88zM991 1457q0 -58 -23 -115t-69.5 -95t-118.5 -38
q-57 0 -93.5 21.5t-58.5 41.5q-22 22 -42 36.5t-46 14.5q-64 0 -65 -95h-177q0 59 24 116.5t72.5 96t122.5 38.5q51 0 88 -22t59 -43q23 -20 45.5 -34.5t46.5 -14.5q58 0 59 92h176z" />
    <glyph glyph-name="atilde.ss01" horiz-adv-x="1350" 
d="M564 -25q-133 0 -248.5 63t-186.5 188t-71 312q0 178 73 299.5t189 183.5t244 62q194 0 328 -141v120h357v-1062h-357v111q-64 -66 -149 -101t-179 -35zM671 273q56 0 106.5 24t82.5 72.5t32 123.5v78q0 75 -32.5 122t-83 70t-105.5 23q-59 0 -113 -25t-88.5 -80
t-34.5 -147q0 -91 34.5 -148.5t88.5 -85t113 -27.5zM1015 1457q0 -58 -23 -115t-69.5 -95t-118.5 -38q-57 0 -93.5 21.5t-58.5 41.5q-22 22 -42 36.5t-46 14.5q-64 0 -65 -95h-177q0 59 24 116.5t72.5 96t122.5 38.5q51 0 88 -22t59 -43q23 -20 45.5 -34.5t46.5 -14.5
q58 0 59 92h176z" />
    <glyph glyph-name="ae" unicode="&#xe6;" horiz-adv-x="2130" 
d="M575 -25q-243 0 -375 99.5t-132 257.5q0 115 71 180.5t185.5 92.5t244.5 27q124 0 189 3t89 14.5t24 36.5v14q0 53 -57 85.5t-145 32.5q-94 0 -159.5 -31t-65.5 -98h-352q0 131 81.5 218.5t213.5 131.5t285 44q118 0 223 -33t177 -100q77 63 180.5 98t226.5 35
q183 0 315.5 -71t204.5 -199.5t72 -301.5q0 -27 -1 -48.5t-2 -33.5h-831q19 -90 78.5 -142t173.5 -52q111 0 161 34t55 67h352q-10 -91 -80 -173.5t-195.5 -135t-302.5 -52.5q-144 0 -258.5 45.5t-192.5 126.5q-49 -63 -123.5 -100.5t-160.5 -54.5t-169 -17zM1241 644h472
q0 10 -3 22q-12 61 -66.5 111t-160.5 50q-94 0 -157 -48t-85 -135zM591 244q51 0 108 17.5t104 60.5t65 118q-65 -6 -131.5 -8.5t-123.5 -2.5q-187 0 -187 -92q0 -93 165 -93z" />
    <glyph glyph-name="aeacute" unicode="&#x1fd;" horiz-adv-x="2130" 
d="M575 -25q-243 0 -375 99.5t-132 257.5q0 115 71 180.5t185.5 92.5t244.5 27q124 0 189 3t89 14.5t24 36.5v14q0 53 -57 85.5t-145 32.5q-94 0 -159.5 -31t-65.5 -98h-352q0 131 81.5 218.5t213.5 131.5t285 44q118 0 223 -33t177 -100q77 63 180.5 98t226.5 35
q183 0 315.5 -71t204.5 -199.5t72 -301.5q0 -27 -1 -48.5t-2 -33.5h-831q19 -90 78.5 -142t173.5 -52q111 0 161 34t55 67h352q-10 -91 -80 -173.5t-195.5 -135t-302.5 -52.5q-144 0 -258.5 45.5t-192.5 126.5q-49 -63 -123.5 -100.5t-160.5 -54.5t-169 -17zM1241 644h472
q0 10 -3 22q-12 61 -66.5 111t-160.5 50q-94 0 -157 -48t-85 -135zM591 244q51 0 108 17.5t104 60.5t65 118q-65 -6 -131.5 -8.5t-123.5 -2.5q-187 0 -187 -92q0 -93 165 -93zM896 1194l237 281h264l-276 -281h-225z" />
    <glyph glyph-name="b" unicode="b" horiz-adv-x="1345" 
d="M111 0v1563h357v-619q62 65 144.5 101.5t176.5 36.5q128 0 242 -63t184.5 -184.5t70.5 -297.5q0 -185 -69 -309.5t-182 -188t-246 -63.5q-94 0 -176.5 39t-144.5 107v-122h-357zM691 790q-54 0 -105.5 -25.5t-84.5 -74t-33 -119.5v-68q0 -71 32.5 -121t84 -76.5
t106.5 -26.5q89 0 158 62t69 196t-68.5 193.5t-158.5 59.5z" />
    <glyph glyph-name="c" unicode="c" horiz-adv-x="1270" 
d="M656 -25q-183 0 -317.5 71.5t-207.5 198t-73 290.5t73 287.5t207.5 192t317.5 68.5q136 0 239.5 -39t174 -103.5t106 -141t35.5 -151.5v-9h-353q0 9 -3 22q-12 51 -57 96.5t-145 45.5q-103 0 -168 -69.5t-65 -198.5q0 -127 65 -203.5t168 -76.5q104 0 150.5 46.5
t53.5 114.5h354q0 -76 -35.5 -153.5t-105.5 -142.5t-173.5 -105t-240.5 -40z" />
    <glyph glyph-name="cacute" unicode="&#x107;" horiz-adv-x="1270" 
d="M656 -25q-183 0 -317.5 71.5t-207.5 198t-73 290.5t73 287.5t207.5 192t317.5 68.5q136 0 239.5 -39t174 -103.5t106 -141t35.5 -151.5v-9h-353q0 9 -3 22q-12 51 -57 96.5t-145 45.5q-103 0 -168 -69.5t-65 -198.5q0 -127 65 -203.5t168 -76.5q104 0 150.5 46.5
t53.5 114.5h354q0 -76 -35.5 -153.5t-105.5 -142.5t-173.5 -105t-240.5 -40zM457 1194l237 281h264l-276 -281h-225z" />
    <glyph glyph-name="ccaron" unicode="&#x10d;" horiz-adv-x="1270" 
d="M656 -25q-183 0 -317.5 71.5t-207.5 198t-73 290.5t73 287.5t207.5 192t317.5 68.5q136 0 239.5 -39t174 -103.5t106 -141t35.5 -151.5v-9h-353q0 9 -3 22q-12 51 -57 96.5t-145 45.5q-103 0 -168 -69.5t-65 -198.5q0 -127 65 -203.5t168 -76.5q104 0 150.5 46.5
t53.5 114.5h354q0 -76 -35.5 -153.5t-105.5 -142.5t-173.5 -105t-240.5 -40zM276 1475h221l139 -163l141 163h222l-249 -281h-224z" />
    <glyph glyph-name="ccedilla" unicode="&#xe7;" horiz-adv-x="1270" 
d="M776 -65q35 0 72 -14.5t62 -47.5t25 -88q0 -69 -42.5 -113t-109.5 -64.5t-140 -20.5q-65 0 -133.5 16.5t-98.5 36.5l69 127q20 -12 71 -31t104 -19q54 0 90.5 19t36.5 56q0 29 -18 42t-44 13q-24 0 -47.5 -8t-34.5 -25l-132 36l63 130q-158 17 -272.5 91.5t-176.5 193.5
t-62 270q0 164 73 287.5t207.5 192t317.5 68.5q136 0 239.5 -39t174 -103.5t106 -141t35.5 -151.5v-9h-353q0 9 -3 22q-12 51 -57 96.5t-145 45.5q-103 0 -168 -69.5t-65 -198.5q0 -127 65 -203.5t168 -76.5q104 0 150.5 46.5t53.5 114.5h354q0 -95 -55.5 -191.5
t-165.5 -165.5t-272 -81l-30 -62q33 19 88 19z" />
    <glyph glyph-name="uni1E09" unicode="&#x1e09;" horiz-adv-x="1270" 
d="M776 -65q35 0 72 -14.5t62 -47.5t25 -88q0 -69 -42.5 -113t-109.5 -64.5t-140 -20.5q-65 0 -133.5 16.5t-98.5 36.5l69 127q20 -12 71 -31t104 -19q54 0 90.5 19t36.5 56q0 29 -18 42t-44 13q-24 0 -47.5 -8t-34.5 -25l-132 36l63 130q-158 17 -272.5 91.5t-176.5 193.5
t-62 270q0 164 73 287.5t207.5 192t317.5 68.5q136 0 239.5 -39t174 -103.5t106 -141t35.5 -151.5v-9h-353q0 9 -3 22q-12 51 -57 96.5t-145 45.5q-103 0 -168 -69.5t-65 -198.5q0 -127 65 -203.5t168 -76.5q104 0 150.5 46.5t53.5 114.5h354q0 -95 -55.5 -191.5
t-165.5 -165.5t-272 -81l-30 -62q33 19 88 19zM457 1194l237 281h264l-276 -281h-225z" />
    <glyph glyph-name="ccircumflex" unicode="&#x109;" horiz-adv-x="1270" 
d="M656 -25q-183 0 -317.5 71.5t-207.5 198t-73 290.5t73 287.5t207.5 192t317.5 68.5q136 0 239.5 -39t174 -103.5t106 -141t35.5 -151.5v-9h-353q0 9 -3 22q-12 51 -57 96.5t-145 45.5q-103 0 -168 -69.5t-65 -198.5q0 -127 65 -203.5t168 -76.5q104 0 150.5 46.5
t53.5 114.5h354q0 -76 -35.5 -153.5t-105.5 -142.5t-173.5 -105t-240.5 -40zM276 1194l250 281h224l249 -281h-222l-141 163l-139 -163h-221z" />
    <glyph glyph-name="cdotaccent" unicode="&#x10b;" horiz-adv-x="1270" 
d="M656 -25q-183 0 -317.5 71.5t-207.5 198t-73 290.5t73 287.5t207.5 192t317.5 68.5q136 0 239.5 -39t174 -103.5t106 -141t35.5 -151.5v-9h-353q0 9 -3 22q-12 51 -57 96.5t-145 45.5q-103 0 -168 -69.5t-65 -198.5q0 -127 65 -203.5t168 -76.5q104 0 150.5 46.5
t53.5 114.5h354q0 -76 -35.5 -153.5t-105.5 -142.5t-173.5 -105t-240.5 -40zM637 1211q-80 0 -140 41.5t-60 119.5t60 119.5t140 41.5q81 0 141 -41.5t60 -119.5t-60 -119.5t-141 -41.5z" />
    <glyph glyph-name="d" unicode="d" horiz-adv-x="1340" 
d="M556 -25q-133 0 -246.5 63.5t-182.5 188.5t-69 310q0 176 71 297.5t184.5 185t242.5 63.5q93 0 176 -37t145 -102v619h357v-1563h-357v121q-62 -68 -144.5 -107t-176.5 -39zM653 279q57 0 108 27t83.5 77t32.5 121v67q0 71 -33 119.5t-84.5 74t-106.5 25.5
q-89 0 -158 -59.5t-69 -193.5t69.5 -196t157.5 -62z" />
    <glyph glyph-name="eth" unicode="&#xf0;" horiz-adv-x="1352" 
d="M652 -25q-176 0 -309.5 70.5t-209 196t-75.5 288.5q0 164 75.5 288.5t209 194.5t309.5 70q86 0 164 -18q-42 87 -105 151l-97 -89l-199 108l112 105q-46 20 -96 36.5t-103 30.5l156 166q116 -28 215 -73l89 83l198 -112l-94 -87q160 -124 257 -332t97 -522
q0 -163 -75.5 -288.5t-209 -196t-309.5 -70.5zM652 251q107 0 171 76t64 203t-64 202t-171 75t-171 -75t-64 -202t64 -203t171 -76z" />
    <glyph glyph-name="dcaron" unicode="&#x10f;" horiz-adv-x="1559" 
d="M556 -25q-133 0 -246.5 63.5t-182.5 188.5t-69 310q0 176 71 297.5t184.5 185t242.5 63.5q93 0 176 -37t145 -102v619h357v-1563h-357v121q-62 -68 -144.5 -107t-176.5 -39zM653 279q57 0 108 27t83.5 77t32.5 121v67q0 71 -33 119.5t-84.5 74t-106.5 25.5
q-89 0 -158 -59.5t-69 -193.5t69.5 -196t157.5 -62zM1552 1563q0 -92 -12 -180t-26 -155t-22 -96h-162q8 30 16.5 96t15 153.5t6.5 181.5h184z" />
    <glyph glyph-name="dcroat" unicode="&#x111;" horiz-adv-x="1354" 
d="M556 -25q-133 0 -246.5 63.5t-182.5 188.5t-69 310q0 176 71 297.5t184.5 185t242.5 63.5q93 0 176 -37t145 -102v287h-376v169h376v163h357v-163h116v-169h-116v-1231h-357v121q-62 -68 -144.5 -107t-176.5 -39zM653 279q57 0 108 27t83.5 77t32.5 121v67
q0 71 -33 119.5t-84.5 74t-106.5 25.5q-89 0 -158 -59.5t-69 -193.5t69.5 -196t157.5 -62z" />
    <glyph glyph-name="uni1E0D" unicode="&#x1e0d;" horiz-adv-x="1340" 
d="M556 -25q-133 0 -246.5 63.5t-182.5 188.5t-69 310q0 176 71 297.5t184.5 185t242.5 63.5q93 0 176 -37t145 -102v619h357v-1563h-357v121q-62 -68 -144.5 -107t-176.5 -39zM653 279q57 0 108 27t83.5 77t32.5 121v67q0 71 -33 119.5t-84.5 74t-106.5 25.5
q-89 0 -158 -59.5t-69 -193.5t69.5 -196t157.5 -62zM740 -451q-81 0 -140.5 42t-59.5 119q0 78 59.5 120t140.5 42q80 0 140.5 -42t60.5 -120t-60.5 -119.5t-140.5 -41.5z" />
    <glyph glyph-name="uni1E0F" unicode="&#x1e0f;" horiz-adv-x="1340" 
d="M556 -25q-133 0 -246.5 63.5t-182.5 188.5t-69 310q0 176 71 297.5t184.5 185t242.5 63.5q93 0 176 -37t145 -102v619h357v-1563h-357v121q-62 -68 -144.5 -107t-176.5 -39zM653 279q57 0 108 27t83.5 77t32.5 121v67q0 71 -33 119.5t-84.5 74t-106.5 25.5
q-89 0 -158 -59.5t-69 -193.5t69.5 -196t157.5 -62zM438 -334v145h597v-145h-597z" />
    <glyph glyph-name="uni01C6" unicode="&#x1c6;" horiz-adv-x="2389" 
d="M556 -25q-133 0 -246.5 63.5t-182.5 188.5t-69 310q0 176 71 297.5t184.5 185t242.5 63.5q93 0 176 -37t145 -102v619h357v-1563h-357v121q-62 -68 -144.5 -107t-176.5 -39zM653 279q57 0 108 27t83.5 77t32.5 121v67q0 71 -33 119.5t-84.5 74t-106.5 25.5
q-89 0 -158 -59.5t-69 -193.5t69.5 -196t157.5 -62zM2333 272v-272h-938v256l529 535h-510v271h906v-256l-525 -534h538zM1506 1475h221l139 -163l141 163h222l-249 -281h-224z" />
    <glyph glyph-name="e" unicode="e" horiz-adv-x="1305" 
d="M1232 336q-9 -93 -79 -175.5t-196 -134t-303 -51.5q-182 0 -315.5 70.5t-207 195.5t-73.5 288q0 166 75 290.5t209.5 194t311.5 69.5q183 0 316 -70.5t205 -198.5t72 -301q0 -27 -1.5 -49.5t-2.5 -34.5h-822q20 -92 81 -142t167 -50q111 0 158.5 32.5t52.5 66.5h352z
M659 825q-186 0 -234 -173h460q-7 64 -60.5 118.5t-165.5 54.5z" />
    <glyph glyph-name="eacute" unicode="&#xe9;" horiz-adv-x="1305" 
d="M1232 336q-9 -93 -79 -175.5t-196 -134t-303 -51.5q-182 0 -315.5 70.5t-207 195.5t-73.5 288q0 166 75 290.5t209.5 194t311.5 69.5q183 0 316 -70.5t205 -198.5t72 -301q0 -27 -1.5 -49.5t-2.5 -34.5h-822q20 -92 81 -142t167 -50q111 0 158.5 32.5t52.5 66.5h352z
M659 825q-186 0 -234 -173h460q-7 64 -60.5 118.5t-165.5 54.5zM472 1194l237 281h264l-276 -281h-225z" />
    <glyph glyph-name="ebreve" unicode="&#x115;" horiz-adv-x="1305" 
d="M1232 336q-9 -93 -79 -175.5t-196 -134t-303 -51.5q-182 0 -315.5 70.5t-207 195.5t-73.5 288q0 166 75 290.5t209.5 194t311.5 69.5q183 0 316 -70.5t205 -198.5t72 -301q0 -27 -1.5 -49.5t-2.5 -34.5h-822q20 -92 81 -142t167 -50q111 0 158.5 32.5t52.5 66.5h352z
M659 825q-186 0 -234 -173h460q-7 64 -60.5 118.5t-165.5 54.5zM347 1495h206q0 -60 26 -99.5t74 -39.5q49 0 74.5 39.5t25.5 99.5h207q0 -131 -87 -201.5t-220 -70.5t-219.5 70.5t-86.5 201.5z" />
    <glyph glyph-name="ecaron" unicode="&#x11b;" horiz-adv-x="1305" 
d="M1232 336q-9 -93 -79 -175.5t-196 -134t-303 -51.5q-182 0 -315.5 70.5t-207 195.5t-73.5 288q0 166 75 290.5t209.5 194t311.5 69.5q183 0 316 -70.5t205 -198.5t72 -301q0 -27 -1.5 -49.5t-2.5 -34.5h-822q20 -92 81 -142t167 -50q111 0 158.5 32.5t52.5 66.5h352z
M659 825q-186 0 -234 -173h460q-7 64 -60.5 118.5t-165.5 54.5zM291 1475h221l139 -163l141 163h222l-249 -281h-224z" />
    <glyph glyph-name="uni0229" unicode="&#x229;" horiz-adv-x="1294" 
d="M781 -65q35 0 72 -14.5t62 -47.5t25 -88q0 -69 -42.5 -113t-109.5 -64.5t-140 -20.5q-65 0 -133.5 16.5t-98.5 36.5l69 127q20 -12 71 -31t104 -19q54 0 90.5 19t36.5 56q0 29 -18 42t-44 13q-24 0 -47.5 -8t-34.5 -25l-132 36l63 129q-159 15 -274.5 88.5t-178.5 192
t-63 269.5q0 166 75 290.5t209.5 194t311.5 69.5q183 0 316 -70.5t205 -198.5t72 -301q0 -27 -1.5 -49.5t-2.5 -34.5h-822q20 -92 81 -142t167 -50q111 0 158.5 32.5t52.5 66.5h352q-9 -86 -70.5 -164t-172 -131t-266.5 -64l-30 -61q33 19 88 19zM659 825q-186 0 -234 -173
h460q-7 64 -60.5 118.5t-165.5 54.5z" />
    <glyph glyph-name="uni1E1D" unicode="&#x1e1d;" horiz-adv-x="1294" 
d="M781 -65q35 0 72 -14.5t62 -47.5t25 -88q0 -69 -42.5 -113t-109.5 -64.5t-140 -20.5q-65 0 -133.5 16.5t-98.5 36.5l69 127q20 -12 71 -31t104 -19q54 0 90.5 19t36.5 56q0 29 -18 42t-44 13q-24 0 -47.5 -8t-34.5 -25l-132 36l63 129q-159 15 -274.5 88.5t-178.5 192
t-63 269.5q0 166 75 290.5t209.5 194t311.5 69.5q183 0 316 -70.5t205 -198.5t72 -301q0 -27 -1.5 -49.5t-2.5 -34.5h-822q20 -92 81 -142t167 -50q111 0 158.5 32.5t52.5 66.5h352q-9 -86 -70.5 -164t-172 -131t-266.5 -64l-30 -61q33 19 88 19zM659 825q-186 0 -234 -173
h460q-7 64 -60.5 118.5t-165.5 54.5zM347 1495h206q0 -60 26 -99.5t74 -39.5q49 0 74.5 39.5t25.5 99.5h207q0 -131 -87 -201.5t-220 -70.5t-219.5 70.5t-86.5 201.5z" />
    <glyph glyph-name="ecircumflex" unicode="&#xea;" horiz-adv-x="1305" 
d="M1232 336q-9 -93 -79 -175.5t-196 -134t-303 -51.5q-182 0 -315.5 70.5t-207 195.5t-73.5 288q0 166 75 290.5t209.5 194t311.5 69.5q183 0 316 -70.5t205 -198.5t72 -301q0 -27 -1.5 -49.5t-2.5 -34.5h-822q20 -92 81 -142t167 -50q111 0 158.5 32.5t52.5 66.5h352z
M659 825q-186 0 -234 -173h460q-7 64 -60.5 118.5t-165.5 54.5zM291 1194l250 281h224l249 -281h-222l-141 163l-139 -163h-221z" />
    <glyph glyph-name="uni1EBF" unicode="&#x1ebf;" horiz-adv-x="1305" 
d="M1232 336q-9 -93 -79 -175.5t-196 -134t-303 -51.5q-182 0 -315.5 70.5t-207 195.5t-73.5 288q0 166 75 290.5t209.5 194t311.5 69.5q183 0 316 -70.5t205 -198.5t72 -301q0 -27 -1.5 -49.5t-2.5 -34.5h-822q20 -92 81 -142t167 -50q111 0 158.5 32.5t52.5 66.5h352z
M659 825q-186 0 -234 -173h460q-7 64 -60.5 118.5t-165.5 54.5zM831 1432l196 281h227l-219 -281h-204zM290 1194l250 281h224l249 -281h-222l-141 163l-139 -163h-221z" />
    <glyph glyph-name="uni1EC7" unicode="&#x1ec7;" horiz-adv-x="1305" 
d="M1232 336q-9 -93 -79 -175.5t-196 -134t-303 -51.5q-182 0 -315.5 70.5t-207 195.5t-73.5 288q0 166 75 290.5t209.5 194t311.5 69.5q183 0 316 -70.5t205 -198.5t72 -301q0 -27 -1.5 -49.5t-2.5 -34.5h-822q20 -92 81 -142t167 -50q111 0 158.5 32.5t52.5 66.5h352z
M659 825q-186 0 -234 -173h460q-7 64 -60.5 118.5t-165.5 54.5zM665 -434q-81 0 -140.5 42t-59.5 119q0 78 59.5 120t140.5 42q80 0 140.5 -42t60.5 -120t-60.5 -119.5t-140.5 -41.5zM291 1194l250 281h224l249 -281h-222l-141 163l-139 -163h-221z" />
    <glyph glyph-name="uni1EC1" unicode="&#x1ec1;" horiz-adv-x="1305" 
d="M1232 336q-9 -93 -79 -175.5t-196 -134t-303 -51.5q-182 0 -315.5 70.5t-207 195.5t-73.5 288q0 166 75 290.5t209.5 194t311.5 69.5q183 0 316 -70.5t205 -198.5t72 -301q0 -27 -1.5 -49.5t-2.5 -34.5h-822q20 -92 81 -142t167 -50q111 0 158.5 32.5t52.5 66.5h352z
M659 825q-186 0 -234 -173h460q-7 64 -60.5 118.5t-165.5 54.5zM1114 1432h-204l-219 281h227zM293 1194l250 281h224l249 -281h-222l-141 163l-139 -163h-221z" />
    <glyph glyph-name="uni1EC3" unicode="&#x1ec3;" horiz-adv-x="1305" 
d="M1232 336q-9 -93 -79 -175.5t-196 -134t-303 -51.5q-182 0 -315.5 70.5t-207 195.5t-73.5 288q0 166 75 290.5t209.5 194t311.5 69.5q183 0 316 -70.5t205 -198.5t72 -301q0 -27 -1.5 -49.5t-2.5 -34.5h-822q20 -92 81 -142t167 -50q111 0 158.5 32.5t52.5 66.5h352z
M659 825q-186 0 -234 -173h460q-7 64 -60.5 118.5t-165.5 54.5zM906 1424l-30 79q26 1 61 5.5t60.5 14.5t25.5 28q0 27 -60.5 35t-171.5 8v94q99 0 185.5 -8t140 -34t53.5 -83q0 -72 -75 -105.5t-189 -33.5zM291 1194l250 281h224l249 -281h-222l-141 163l-139 -163h-221z
" />
    <glyph glyph-name="uni1EC5" unicode="&#x1ec5;" horiz-adv-x="1305" 
d="M1232 336q-9 -93 -79 -175.5t-196 -134t-303 -51.5q-182 0 -315.5 70.5t-207 195.5t-73.5 288q0 166 75 290.5t209.5 194t311.5 69.5q183 0 316 -70.5t205 -198.5t72 -301q0 -27 -1.5 -49.5t-2.5 -34.5h-822q20 -92 81 -142t167 -50q111 0 158.5 32.5t52.5 66.5h352z
M659 825q-186 0 -234 -173h460q-7 64 -60.5 118.5t-165.5 54.5zM792 1559q-58 0 -94 21.5t-57 41.5q-22 21 -41.5 36t-46.5 15q-65 0 -66 -95h-177q0 59 24 116.5t72.5 96t122.5 38.5q51 0 88.5 -22t59.5 -43q22 -20 44.5 -34.5t46.5 -14.5q58 0 59 92h176q0 -58 -23 -115
t-69.5 -95t-118.5 -38zM291 1194l250 281h224l249 -281h-222l-141 163l-139 -163h-221z" />
    <glyph glyph-name="uni0205" unicode="&#x205;" horiz-adv-x="1305" 
d="M1232 336q-9 -93 -79 -175.5t-196 -134t-303 -51.5q-182 0 -315.5 70.5t-207 195.5t-73.5 288q0 166 75 290.5t209.5 194t311.5 69.5q183 0 316 -70.5t205 -198.5t72 -301q0 -27 -1.5 -49.5t-2.5 -34.5h-822q20 -92 81 -142t167 -50q111 0 158.5 32.5t52.5 66.5h352z
M659 825q-186 0 -234 -173h460q-7 64 -60.5 118.5t-165.5 54.5zM922 1194h-186l-174 281h212zM582 1194h-186l-200 281h211z" />
    <glyph glyph-name="edieresis" unicode="&#xeb;" horiz-adv-x="1305" 
d="M1232 336q-9 -93 -79 -175.5t-196 -134t-303 -51.5q-182 0 -315.5 70.5t-207 195.5t-73.5 288q0 166 75 290.5t209.5 194t311.5 69.5q183 0 316 -70.5t205 -198.5t72 -301q0 -27 -1.5 -49.5t-2.5 -34.5h-822q20 -92 81 -142t167 -50q111 0 158.5 32.5t52.5 66.5h352z
M659 825q-186 0 -234 -173h460q-7 64 -60.5 118.5t-165.5 54.5zM394 1203q-73 0 -128 38.5t-55 109.5t55 109t128 38t128.5 -38t55.5 -109q0 -72 -55.5 -110t-128.5 -38zM908 1203q-73 0 -128 38.5t-55 109.5t55 109t128 38t128 -38t55 -109q0 -72 -55 -110t-128 -38z" />
    <glyph glyph-name="edotaccent" unicode="&#x117;" horiz-adv-x="1305" 
d="M1232 336q-9 -93 -79 -175.5t-196 -134t-303 -51.5q-182 0 -315.5 70.5t-207 195.5t-73.5 288q0 166 75 290.5t209.5 194t311.5 69.5q183 0 316 -70.5t205 -198.5t72 -301q0 -27 -1.5 -49.5t-2.5 -34.5h-822q20 -92 81 -142t167 -50q111 0 158.5 32.5t52.5 66.5h352z
M659 825q-186 0 -234 -173h460q-7 64 -60.5 118.5t-165.5 54.5zM652 1211q-80 0 -140 41.5t-60 119.5t60 119.5t140 41.5q81 0 141 -41.5t60 -119.5t-60 -119.5t-141 -41.5z" />
    <glyph glyph-name="uni1EB9" unicode="&#x1eb9;" horiz-adv-x="1305" 
d="M1232 336q-9 -93 -79 -175.5t-196 -134t-303 -51.5q-182 0 -315.5 70.5t-207 195.5t-73.5 288q0 166 75 290.5t209.5 194t311.5 69.5q183 0 316 -70.5t205 -198.5t72 -301q0 -27 -1.5 -49.5t-2.5 -34.5h-822q20 -92 81 -142t167 -50q111 0 158.5 32.5t52.5 66.5h352z
M659 825q-186 0 -234 -173h460q-7 64 -60.5 118.5t-165.5 54.5zM665 -434q-81 0 -140.5 42t-59.5 119q0 78 59.5 120t140.5 42q80 0 140.5 -42t60.5 -120t-60.5 -119.5t-140.5 -41.5z" />
    <glyph glyph-name="egrave" unicode="&#xe8;" horiz-adv-x="1305" 
d="M1232 336q-9 -93 -79 -175.5t-196 -134t-303 -51.5q-182 0 -315.5 70.5t-207 195.5t-73.5 288q0 166 75 290.5t209.5 194t311.5 69.5q183 0 316 -70.5t205 -198.5t72 -301q0 -27 -1.5 -49.5t-2.5 -34.5h-822q20 -92 81 -142t167 -50q111 0 158.5 32.5t52.5 66.5h352z
M659 825q-186 0 -234 -173h460q-7 64 -60.5 118.5t-165.5 54.5zM830 1187h-225l-276 281h264z" />
    <glyph glyph-name="uni1EBB" unicode="&#x1ebb;" horiz-adv-x="1305" 
d="M1232 336q-9 -93 -79 -175.5t-196 -134t-303 -51.5q-182 0 -315.5 70.5t-207 195.5t-73.5 288q0 166 75 290.5t209.5 194t311.5 69.5q183 0 316 -70.5t205 -198.5t72 -301q0 -27 -1.5 -49.5t-2.5 -34.5h-822q20 -92 81 -142t167 -50q111 0 158.5 32.5t52.5 66.5h352z
M659 825q-186 0 -234 -173h460q-7 64 -60.5 118.5t-165.5 54.5zM436 1513q113 0 211.5 -9t159.5 -39t61 -94q0 -83 -85.5 -122t-215.5 -39l-35 91q30 2 69.5 7t69 16.5t29.5 32.5q0 30 -69 39t-195 9v108z" />
    <glyph glyph-name="uni0207" unicode="&#x207;" horiz-adv-x="1305" 
d="M1232 336q-9 -93 -79 -175.5t-196 -134t-303 -51.5q-182 0 -315.5 70.5t-207 195.5t-73.5 288q0 166 75 290.5t209.5 194t311.5 69.5q183 0 316 -70.5t205 -198.5t72 -301q0 -27 -1.5 -49.5t-2.5 -34.5h-822q20 -92 81 -142t167 -50q111 0 158.5 32.5t52.5 66.5h352z
M659 825q-186 0 -234 -173h460q-7 64 -60.5 118.5t-165.5 54.5zM346 1227q0 131 87 196.5t220 65.5q132 0 219 -65.5t87 -196.5h-206q0 60 -25.5 94t-74.5 34q-48 0 -74.5 -34t-26.5 -94h-206z" />
    <glyph glyph-name="emacron" unicode="&#x113;" horiz-adv-x="1305" 
d="M1232 336q-9 -93 -79 -175.5t-196 -134t-303 -51.5q-182 0 -315.5 70.5t-207 195.5t-73.5 288q0 166 75 290.5t209.5 194t311.5 69.5q183 0 316 -70.5t205 -198.5t72 -301q0 -27 -1.5 -49.5t-2.5 -34.5h-822q20 -92 81 -142t167 -50q111 0 158.5 32.5t52.5 66.5h352z
M659 825q-186 0 -234 -173h460q-7 64 -60.5 118.5t-165.5 54.5zM323 1276v146h658v-146h-658z" />
    <glyph glyph-name="uni1E17" unicode="&#x1e17;" horiz-adv-x="1305" 
d="M1232 336q-9 -93 -79 -175.5t-196 -134t-303 -51.5q-182 0 -315.5 70.5t-207 195.5t-73.5 288q0 166 75 290.5t209.5 194t311.5 69.5q183 0 316 -70.5t205 -198.5t72 -301q0 -27 -1.5 -49.5t-2.5 -34.5h-822q20 -92 81 -142t167 -50q111 0 158.5 32.5t52.5 66.5h352z
M659 825q-186 0 -234 -173h460q-7 64 -60.5 118.5t-165.5 54.5zM323 1276v146h658v-146h-658zM472 1554l237 281h264l-276 -281h-225z" />
    <glyph glyph-name="uni1E15" unicode="&#x1e15;" horiz-adv-x="1305" 
d="M1232 336q-9 -93 -79 -175.5t-196 -134t-303 -51.5q-182 0 -315.5 70.5t-207 195.5t-73.5 288q0 166 75 290.5t209.5 194t311.5 69.5q183 0 316 -70.5t205 -198.5t72 -301q0 -27 -1.5 -49.5t-2.5 -34.5h-822q20 -92 81 -142t167 -50q111 0 158.5 32.5t52.5 66.5h352z
M659 825q-186 0 -234 -173h460q-7 64 -60.5 118.5t-165.5 54.5zM323 1276v146h658v-146h-658zM830 1547h-225l-276 281h264z" />
    <glyph glyph-name="eogonek" unicode="&#x119;" horiz-adv-x="1305" 
d="M935 -259v-168q-21 -2 -45 -3.5t-49 -1.5q-107 0 -185.5 41.5t-78.5 135.5q0 62 42 125t88 106q-26 -1 -53 -1q-182 0 -315.5 70.5t-207 195.5t-73.5 288q0 166 75 290.5t209.5 194t311.5 69.5q183 0 316 -70.5t205 -198.5t72 -301q0 -27 -1.5 -49.5t-2.5 -34.5h-822
q20 -92 81 -142t167 -50q111 0 158.5 32.5t52.5 66.5h352q-10 -98 -88 -185.5t-218 -134.5q-29 -25 -66.5 -65.5t-65.5 -83t-28 -73.5q0 -35 28.5 -47.5t66.5 -12.5q18 0 37.5 2t36.5 5zM659 825q-186 0 -234 -173h460q-7 64 -60.5 118.5t-165.5 54.5z" />
    <glyph glyph-name="uni1EBD" unicode="&#x1ebd;" horiz-adv-x="1305" 
d="M1232 336q-9 -93 -79 -175.5t-196 -134t-303 -51.5q-182 0 -315.5 70.5t-207 195.5t-73.5 288q0 166 75 290.5t209.5 194t311.5 69.5q183 0 316 -70.5t205 -198.5t72 -301q0 -27 -1.5 -49.5t-2.5 -34.5h-822q20 -92 81 -142t167 -50q111 0 158.5 32.5t52.5 66.5h352z
M659 825q-186 0 -234 -173h460q-7 64 -60.5 118.5t-165.5 54.5zM999 1457q0 -58 -23 -115t-69.5 -95t-118.5 -38q-57 0 -93.5 21.5t-58.5 41.5q-22 22 -42 36.5t-46 14.5q-64 0 -65 -95h-177q0 59 24 116.5t72.5 96t122.5 38.5q51 0 88 -22t59 -43q23 -20 45.5 -34.5
t46.5 -14.5q58 0 59 92h176z" />
    <glyph glyph-name="uni0259" unicode="&#x259;" horiz-adv-x="1305" 
d="M651 -26q-183 0 -316 70.5t-205 198.5t-72 301q0 27 1.5 49.5t2.5 34.5h831q-18 93 -78.5 142.5t-181.5 49.5q-95 0 -147 -30t-61 -69h-352q9 93 79 175.5t196 134t303 51.5q182 0 315.5 -70.5t207 -195.5t73.5 -288q0 -166 -75 -290.5t-209.5 -194t-311.5 -69.5z
M646 232q192 0 242 173h-468q7 -64 62 -118.5t164 -54.5z" />
    <glyph glyph-name="uni0292" unicode="&#x292;" horiz-adv-x="1284" 
d="M640 -438q-161 0 -266.5 42t-166 114t-85.5 162.5t-25 188.5v4h356v-4q0 -138 52 -187t139 -49q75 0 123.5 40t48.5 149q0 110 -60 156.5t-226 46.5h-118l353 567h-608v270h963v-249l-257 -394q142 0 226 -99.5t84 -265.5q0 -139 -55.5 -250.5t-173.5 -176.5t-304 -65z
" />
    <glyph glyph-name="uni01EF" unicode="&#x1ef;" horiz-adv-x="1284" 
d="M640 -438q-161 0 -266.5 42t-166 114t-85.5 162.5t-25 188.5v4h356v-4q0 -138 52 -187t139 -49q75 0 123.5 40t48.5 149q0 110 -60 156.5t-226 46.5h-118l353 567h-608v270h963v-249l-257 -394q142 0 226 -99.5t84 -265.5q0 -139 -55.5 -250.5t-173.5 -176.5t-304 -65z
M281 1475h221l139 -163l141 163h222l-249 -281h-224z" />
    <glyph glyph-name="f" unicode="f" horiz-adv-x="906" 
d="M238 0v792h-217v270h217v52q0 146 50.5 237t128.5 140.5t165 67.5t161 18q71 0 105 -8t46 -13v-272q-12 4 -43.5 9.5t-66.5 5.5q-110 0 -150 -52.5t-40 -141.5v-43h277v-270h-277v-792h-356z" />
    <glyph glyph-name="g" unicode="g" horiz-adv-x="1276" 
d="M861 146q153 -17 246.5 -74.5t93.5 -197.5q0 -163 -158 -249t-438 -86t-436.5 80t-156.5 213q0 69 30 115l321 -46q-4 -5 -8.5 -17.5t-4.5 -31.5q0 -44 75.5 -67.5t187.5 -23.5q116 0 186.5 25t70.5 66q0 38 -39.5 52t-89.5 19l-402 45q-114 13 -190 65t-76 147
q0 66 43.5 119t88.5 81q-133 107 -133 285q0 127 67.5 220.5t184 145.5t261.5 52q113 0 209.5 -38.5t146.5 -101.5l11 119h312l-126 -405q-36 -116 -98.5 -205t-165 -140t-259.5 -51q-132 0 -238 32q-18 -18 -18 -38q0 -26 27.5 -44t101.5 -26zM613 514q84 0 138 40t54 115
q0 74 -54 114t-138 40q-81 0 -137 -41t-56 -115t54.5 -113.5t138.5 -39.5z" />
    <glyph glyph-name="g.ss01" horiz-adv-x="1360" 
d="M574 -25q-133 0 -248.5 63t-186.5 188t-71 312q0 178 73 299.5t189 183.5t244 62q195 0 328 -139v118h357v-1056q0 -134 -51.5 -223t-137 -141.5t-190 -75t-210.5 -22.5q-105 0 -205 19.5t-180 62t-127.5 113.5t-47.5 174v13h356v-13q0 -51 59 -85t153 -34
q107 0 165.5 52t58.5 160v107q-64 -67 -149 -102.5t-179 -35.5zM681 277q56 0 106.5 24t82.5 72.5t32 123.5v78q0 75 -32.5 122t-83 70t-105.5 23q-59 0 -113 -25t-88.5 -80t-34.5 -147q0 -91 34.5 -148.5t88.5 -85t113 -27.5z" />
    <glyph glyph-name="gbreve" unicode="&#x11f;" horiz-adv-x="1276" 
d="M861 146q153 -17 246.5 -74.5t93.5 -197.5q0 -163 -158 -249t-438 -86t-436.5 80t-156.5 213q0 69 30 115l321 -46q-4 -5 -8.5 -17.5t-4.5 -31.5q0 -44 75.5 -67.5t187.5 -23.5q116 0 186.5 25t70.5 66q0 38 -39.5 52t-89.5 19l-402 45q-114 13 -190 65t-76 147
q0 66 43.5 119t88.5 81q-133 107 -133 285q0 127 67.5 220.5t184 145.5t261.5 52q113 0 209.5 -38.5t146.5 -101.5l11 119h312l-126 -405q-36 -116 -98.5 -205t-165 -140t-259.5 -51q-132 0 -238 32q-18 -18 -18 -38q0 -26 27.5 -44t101.5 -26zM613 514q84 0 138 40t54 115
q0 74 -54 114t-138 40q-81 0 -137 -41t-56 -115t54.5 -113.5t138.5 -39.5zM289 1495h206q0 -60 26 -99.5t74 -39.5q49 0 74.5 39.5t25.5 99.5h207q0 -131 -87 -201.5t-220 -70.5t-219.5 70.5t-86.5 201.5z" />
    <glyph glyph-name="gbreve.ss01" horiz-adv-x="1360" 
d="M574 -25q-133 0 -248.5 63t-186.5 188t-71 312q0 178 73 299.5t189 183.5t244 62q195 0 328 -139v118h357v-1056q0 -134 -51.5 -223t-137 -141.5t-190 -75t-210.5 -22.5q-105 0 -205 19.5t-180 62t-127.5 113.5t-47.5 174v13h356v-13q0 -51 59 -85t153 -34
q107 0 165.5 52t58.5 160v107q-64 -67 -149 -102.5t-179 -35.5zM681 277q56 0 106.5 24t82.5 72.5t32 123.5v78q0 75 -32.5 122t-83 70t-105.5 23q-59 0 -113 -25t-88.5 -80t-34.5 -147q0 -91 34.5 -148.5t88.5 -85t113 -27.5zM356 1495h206q0 -60 26 -99.5t74 -39.5
q49 0 74.5 39.5t25.5 99.5h207q0 -131 -87 -201.5t-220 -70.5t-219.5 70.5t-86.5 201.5z" />
    <glyph glyph-name="gcaron" unicode="&#x1e7;" horiz-adv-x="1276" 
d="M861 146q153 -17 246.5 -74.5t93.5 -197.5q0 -163 -158 -249t-438 -86t-436.5 80t-156.5 213q0 69 30 115l321 -46q-4 -5 -8.5 -17.5t-4.5 -31.5q0 -44 75.5 -67.5t187.5 -23.5q116 0 186.5 25t70.5 66q0 38 -39.5 52t-89.5 19l-402 45q-114 13 -190 65t-76 147
q0 66 43.5 119t88.5 81q-133 107 -133 285q0 127 67.5 220.5t184 145.5t261.5 52q113 0 209.5 -38.5t146.5 -101.5l11 119h312l-126 -405q-36 -116 -98.5 -205t-165 -140t-259.5 -51q-132 0 -238 32q-18 -18 -18 -38q0 -26 27.5 -44t101.5 -26zM613 514q84 0 138 40t54 115
q0 74 -54 114t-138 40q-81 0 -137 -41t-56 -115t54.5 -113.5t138.5 -39.5zM234 1475h221l139 -163l141 163h222l-249 -281h-224z" />
    <glyph glyph-name="gcaron.ss01" horiz-adv-x="1360" 
d="M574 -25q-133 0 -248.5 63t-186.5 188t-71 312q0 178 73 299.5t189 183.5t244 62q195 0 328 -139v118h357v-1056q0 -134 -51.5 -223t-137 -141.5t-190 -75t-210.5 -22.5q-105 0 -205 19.5t-180 62t-127.5 113.5t-47.5 174v13h356v-13q0 -51 59 -85t153 -34
q107 0 165.5 52t58.5 160v107q-64 -67 -149 -102.5t-179 -35.5zM681 277q56 0 106.5 24t82.5 72.5t32 123.5v78q0 75 -32.5 122t-83 70t-105.5 23q-59 0 -113 -25t-88.5 -80t-34.5 -147q0 -91 34.5 -148.5t88.5 -85t113 -27.5zM300 1475h221l139 -163l141 163h222l-249 -281
h-224z" />
    <glyph glyph-name="gcircumflex" unicode="&#x11d;" horiz-adv-x="1276" 
d="M861 146q153 -17 246.5 -74.5t93.5 -197.5q0 -163 -158 -249t-438 -86t-436.5 80t-156.5 213q0 69 30 115l321 -46q-4 -5 -8.5 -17.5t-4.5 -31.5q0 -44 75.5 -67.5t187.5 -23.5q116 0 186.5 25t70.5 66q0 38 -39.5 52t-89.5 19l-402 45q-114 13 -190 65t-76 147
q0 66 43.5 119t88.5 81q-133 107 -133 285q0 127 67.5 220.5t184 145.5t261.5 52q113 0 209.5 -38.5t146.5 -101.5l11 119h312l-126 -405q-36 -116 -98.5 -205t-165 -140t-259.5 -51q-132 0 -238 32q-18 -18 -18 -38q0 -26 27.5 -44t101.5 -26zM613 514q84 0 138 40t54 115
q0 74 -54 114t-138 40q-81 0 -137 -41t-56 -115t54.5 -113.5t138.5 -39.5zM234 1194l250 281h224l249 -281h-222l-141 163l-139 -163h-221z" />
    <glyph glyph-name="gcircumflex.ss01" horiz-adv-x="1360" 
d="M574 -25q-133 0 -248.5 63t-186.5 188t-71 312q0 178 73 299.5t189 183.5t244 62q195 0 328 -139v118h357v-1056q0 -134 -51.5 -223t-137 -141.5t-190 -75t-210.5 -22.5q-105 0 -205 19.5t-180 62t-127.5 113.5t-47.5 174v13h356v-13q0 -51 59 -85t153 -34
q107 0 165.5 52t58.5 160v107q-64 -67 -149 -102.5t-179 -35.5zM681 277q56 0 106.5 24t82.5 72.5t32 123.5v78q0 75 -32.5 122t-83 70t-105.5 23q-59 0 -113 -25t-88.5 -80t-34.5 -147q0 -91 34.5 -148.5t88.5 -85t113 -27.5zM300 1194l250 281h224l249 -281h-222l-141 163
l-139 -163h-221z" />
    <glyph glyph-name="uni0123" unicode="&#x123;" horiz-adv-x="1276" 
d="M861 146q153 -17 246.5 -74.5t93.5 -197.5q0 -163 -158 -249t-438 -86t-436.5 80t-156.5 213q0 69 30 115l321 -46q-4 -5 -8.5 -17.5t-4.5 -31.5q0 -44 75.5 -67.5t187.5 -23.5q116 0 186.5 25t70.5 66q0 38 -39.5 52t-89.5 19l-402 45q-114 13 -190 65t-76 147
q0 66 43.5 119t88.5 81q-133 107 -133 285q0 127 67.5 220.5t184 145.5t261.5 52q113 0 209.5 -38.5t146.5 -101.5l11 119h312l-126 -405q-36 -116 -98.5 -205t-165 -140t-259.5 -51q-132 0 -238 32q-18 -18 -18 -38q0 -26 27.5 -44t101.5 -26zM613 514q84 0 138 40t54 115
q0 74 -54 114t-138 40q-81 0 -137 -41t-56 -115t54.5 -113.5t138.5 -39.5zM614.506 1377q48.6514 0 79.0586 -28.2354t30.4072 -78.624t-33.4482 -82.9678q-33.4473 -32.5791 -95.1309 -32.5791q-62.5518 0 -95.999 41.2666q-33.4482 41.2666 -33.4482 106.425
q0 61.6826 30.8418 108.162t76.8867 79.0586t91.2207 50.8232l25.1943 -52.126q-28.6689 -12.1631 -59.5107 -33.0137t-51.2578 -45.6104q-20.416 -24.7607 -20.416 -49.9551q1.7373 4.34375 16.5068 10.8594q14.7686 6.5166 39.0947 6.5166z" />
    <glyph glyph-name="uni0123.ss01" horiz-adv-x="1360" 
d="M574 -25q-133 0 -248.5 63t-186.5 188t-71 312q0 178 73 299.5t189 183.5t244 62q195 0 328 -139v118h357v-1056q0 -134 -51.5 -223t-137 -141.5t-190 -75t-210.5 -22.5q-105 0 -205 19.5t-180 62t-127.5 113.5t-47.5 174v13h356v-13q0 -51 59 -85t153 -34
q107 0 165.5 52t58.5 160v107q-64 -67 -149 -102.5t-179 -35.5zM681 277q56 0 106.5 24t82.5 72.5t32 123.5v78q0 75 -32.5 122t-83 70t-105.5 23q-59 0 -113 -25t-88.5 -80t-34.5 -147q0 -91 34.5 -148.5t88.5 -85t113 -27.5zM684 1425q56 0 91 -32.5t35 -90.5t-38.5 -95.5
t-109.5 -37.5q-72 0 -110.5 47.5t-38.5 122.5q0 71 35.5 124.5t88.5 91t105 58.5l29 -60q-33 -14 -68.5 -38t-59 -52.5t-23.5 -57.5q2 5 19 12.5t45 7.5z" />
    <glyph glyph-name="gdotaccent" unicode="&#x121;" horiz-adv-x="1276" 
d="M861 146q153 -17 246.5 -74.5t93.5 -197.5q0 -163 -158 -249t-438 -86t-436.5 80t-156.5 213q0 69 30 115l321 -46q-4 -5 -8.5 -17.5t-4.5 -31.5q0 -44 75.5 -67.5t187.5 -23.5q116 0 186.5 25t70.5 66q0 38 -39.5 52t-89.5 19l-402 45q-114 13 -190 65t-76 147
q0 66 43.5 119t88.5 81q-133 107 -133 285q0 127 67.5 220.5t184 145.5t261.5 52q113 0 209.5 -38.5t146.5 -101.5l11 119h312l-126 -405q-36 -116 -98.5 -205t-165 -140t-259.5 -51q-132 0 -238 32q-18 -18 -18 -38q0 -26 27.5 -44t101.5 -26zM613 514q84 0 138 40t54 115
q0 74 -54 114t-138 40q-81 0 -137 -41t-56 -115t54.5 -113.5t138.5 -39.5zM594 1211q-80 0 -140 41.5t-60 119.5t60 119.5t140 41.5q81 0 141 -41.5t60 -119.5t-60 -119.5t-141 -41.5z" />
    <glyph glyph-name="gdotaccent.ss01" horiz-adv-x="1360" 
d="M574 -25q-133 0 -248.5 63t-186.5 188t-71 312q0 178 73 299.5t189 183.5t244 62q195 0 328 -139v118h357v-1056q0 -134 -51.5 -223t-137 -141.5t-190 -75t-210.5 -22.5q-105 0 -205 19.5t-180 62t-127.5 113.5t-47.5 174v13h356v-13q0 -51 59 -85t153 -34
q107 0 165.5 52t58.5 160v107q-64 -67 -149 -102.5t-179 -35.5zM681 277q56 0 106.5 24t82.5 72.5t32 123.5v78q0 75 -32.5 122t-83 70t-105.5 23q-59 0 -113 -25t-88.5 -80t-34.5 -147q0 -91 34.5 -148.5t88.5 -85t113 -27.5zM661 1211q-80 0 -140 41.5t-60 119.5t60 119.5
t140 41.5q81 0 141 -41.5t60 -119.5t-60 -119.5t-141 -41.5z" />
    <glyph glyph-name="uni1E21" unicode="&#x1e21;" horiz-adv-x="1276" 
d="M861 146q153 -17 246.5 -74.5t93.5 -197.5q0 -163 -158 -249t-438 -86t-436.5 80t-156.5 213q0 69 30 115l321 -46q-4 -5 -8.5 -17.5t-4.5 -31.5q0 -44 75.5 -67.5t187.5 -23.5q116 0 186.5 25t70.5 66q0 38 -39.5 52t-89.5 19l-402 45q-114 13 -190 65t-76 147
q0 66 43.5 119t88.5 81q-133 107 -133 285q0 127 67.5 220.5t184 145.5t261.5 52q113 0 209.5 -38.5t146.5 -101.5l11 119h312l-126 -405q-36 -116 -98.5 -205t-165 -140t-259.5 -51q-132 0 -238 32q-18 -18 -18 -38q0 -26 27.5 -44t101.5 -26zM613 514q84 0 138 40t54 115
q0 74 -54 114t-138 40q-81 0 -137 -41t-56 -115t54.5 -113.5t138.5 -39.5zM266 1276v146h658v-146h-658z" />
    <glyph glyph-name="uni1E21.ss01" horiz-adv-x="1360" 
d="M574 -25q-133 0 -248.5 63t-186.5 188t-71 312q0 178 73 299.5t189 183.5t244 62q195 0 328 -139v118h357v-1056q0 -134 -51.5 -223t-137 -141.5t-190 -75t-210.5 -22.5q-105 0 -205 19.5t-180 62t-127.5 113.5t-47.5 174v13h356v-13q0 -51 59 -85t153 -34
q107 0 165.5 52t58.5 160v107q-64 -67 -149 -102.5t-179 -35.5zM681 277q56 0 106.5 24t82.5 72.5t32 123.5v78q0 75 -32.5 122t-83 70t-105.5 23q-59 0 -113 -25t-88.5 -80t-34.5 -147q0 -91 34.5 -148.5t88.5 -85t113 -27.5zM332 1276v146h658v-146h-658z" />
    <glyph glyph-name="uni01E5" unicode="&#x1e5;" horiz-adv-x="1360" 
d="M574 -25q-133 0 -248.5 63t-186.5 188t-71 312q0 178 73 299.5t189 183.5t244 62q195 0 328 -139v118h357v-1056q0 -134 -51.5 -223t-137 -141.5t-190 -75t-210.5 -22.5q-105 0 -205 19.5t-180 62t-127.5 113.5t-47.5 174v13h356v-13q0 -51 59 -85t153 -34
q107 0 165.5 52t58.5 160v107q-64 -67 -149 -102.5t-179 -35.5zM681 277q56 0 106.5 24t82.5 72.5t32 123.5v78q0 75 -32.5 122t-83 70t-105.5 23q-59 0 -113 -25t-88.5 -80t-34.5 -147q0 -91 34.5 -148.5t88.5 -85t113 -27.5zM638 448v159h739v-159h-739z" />
    <glyph glyph-name="h" unicode="h" horiz-adv-x="1311" 
d="M111 0v1563h356v-652q58 81 150.5 126.5t209.5 45.5q196 0 289.5 -114.5t93.5 -318.5v-650h-356v547q0 112 -37 174.5t-145 62.5q-106 0 -155.5 -62.5t-49.5 -169.5v-552h-356z" />
    <glyph glyph-name="hbar" unicode="&#x127;" horiz-adv-x="1335" 
d="M135 0v1231h-133v169h133v163h356v-163h330v-169h-330v-320q58 81 150.5 126.5t209.5 45.5q196 0 289.5 -114.5t93.5 -318.5v-650h-356v547q0 112 -37 174.5t-145 62.5q-106 0 -155.5 -62.5t-49.5 -169.5v-552h-356z" />
    <glyph glyph-name="uni1E2B" unicode="&#x1e2b;" horiz-adv-x="1311" 
d="M111 0v1563h356v-652q58 81 150.5 126.5t209.5 45.5q196 0 289.5 -114.5t93.5 -318.5v-650h-356v547q0 112 -37 174.5t-145 62.5q-106 0 -155.5 -62.5t-49.5 -169.5v-552h-356zM342 -118h206q0 -60 26 -93.5t74 -33.5q49 0 75 33.5t26 93.5h206q0 -130 -87 -195.5
t-220 -65.5t-219.5 65.5t-86.5 195.5z" />
    <glyph glyph-name="hcircumflex" unicode="&#x125;" horiz-adv-x="1311" 
d="M111 0v1563h356v-652q58 81 150.5 126.5t209.5 45.5q196 0 289.5 -114.5t93.5 -318.5v-650h-356v547q0 112 -37 174.5t-145 62.5q-106 0 -155.5 -62.5t-49.5 -169.5v-552h-356zM-67 1692l250 281h224l249 -281h-222l-141 163l-139 -163h-221z" />
    <glyph glyph-name="uni1E25" unicode="&#x1e25;" horiz-adv-x="1311" 
d="M111 0v1563h356v-652q58 81 150.5 126.5t209.5 45.5q196 0 289.5 -114.5t93.5 -318.5v-650h-356v547q0 112 -37 174.5t-145 62.5q-106 0 -155.5 -62.5t-49.5 -169.5v-552h-356zM651 -434q-81 0 -140.5 42t-59.5 119q0 78 59.5 120t140.5 42q80 0 140.5 -42t60.5 -120
t-60.5 -119.5t-140.5 -41.5z" />
    <glyph glyph-name="i" unicode="i" horiz-adv-x="534" 
d="M267 1211q-81 0 -141 42t-60 119q0 78 60 119.5t141 41.5q80 0 140.5 -41.5t60.5 -119.5t-60.5 -119.5t-140.5 -41.5zM91 0v1062h353v-1062h-353z" />
    <glyph glyph-name="dotlessi" unicode="&#x131;" horiz-adv-x="535" 
d="M91 0v1062h353v-1062h-353z" />
    <glyph glyph-name="iacute" unicode="&#xed;" horiz-adv-x="535" 
d="M91 0v1062h353v-1062h-353zM88 1194l237 281h264l-276 -281h-225z" />
    <glyph glyph-name="ibreve" unicode="&#x12d;" horiz-adv-x="535" 
d="M91 0v1062h353v-1062h-353zM-37 1495h206q0 -60 26 -99.5t74 -39.5q49 0 74.5 39.5t25.5 99.5h207q0 -131 -87 -201.5t-220 -70.5t-219.5 70.5t-86.5 201.5z" />
    <glyph glyph-name="uni01D0" unicode="&#x1d0;" horiz-adv-x="535" 
d="M91 0v1062h353v-1062h-353zM-93 1475h221l139 -163l141 163h222l-249 -281h-224z" />
    <glyph glyph-name="icircumflex" unicode="&#xee;" horiz-adv-x="535" 
d="M91 0v1062h353v-1062h-353zM-93 1194l250 281h224l249 -281h-222l-141 163l-139 -163h-221z" />
    <glyph glyph-name="uni0209" unicode="&#x209;" horiz-adv-x="535" 
d="M91 0v1062h353v-1062h-353zM538 1194h-186l-174 281h212zM198 1194h-186l-200 281h211z" />
    <glyph glyph-name="idieresis" unicode="&#xef;" horiz-adv-x="535" 
d="M91 0v1062h353v-1062h-353zM63 1203q-73 0 -128 38.5t-55 109.5t55 109t128 38t128 -38t55 -109q0 -72 -55 -110t-128 -38zM469 1203q-73 0 -128 38.5t-55 109.5t55 109t128 38t128 -38t55 -109q0 -72 -55 -110t-128 -38z" />
    <glyph glyph-name="uni1E2F" unicode="&#x1e2f;" horiz-adv-x="535" 
d="M91 0v1062h353v-1062h-353zM63 1203q-73 0 -128 38.5t-55 109.5t55 109t128 38t128 -38t55 -109q0 -72 -55 -110t-128 -38zM469 1203q-73 0 -128 38.5t-55 109.5t55 109t128 38t128 -38t55 -109q0 -72 -55 -110t-128 -38zM88 1639l237 281h264l-276 -281h-225z" />
    <glyph glyph-name="i.loclTRK" horiz-adv-x="535" 
d="M91 0v1062h353v-1062h-353zM268 1211q-80 0 -140 41.5t-60 119.5t60 119.5t140 41.5q81 0 141 -41.5t60 -119.5t-60 -119.5t-141 -41.5z" />
    <glyph glyph-name="uni1ECB" unicode="&#x1ecb;" horiz-adv-x="534" 
d="M267 1211q-81 0 -141 42t-60 119q0 78 60 119.5t141 41.5q80 0 140.5 -41.5t60.5 -119.5t-60.5 -119.5t-140.5 -41.5zM91 0v1062h353v-1062h-353zM268 -434q-81 0 -140.5 42t-59.5 119q0 78 59.5 120t140.5 42q80 0 140.5 -42t60.5 -120t-60.5 -119.5t-140.5 -41.5z" />
    <glyph glyph-name="igrave" unicode="&#xec;" horiz-adv-x="535" 
d="M91 0v1062h353v-1062h-353zM446 1187h-225l-276 281h264z" />
    <glyph glyph-name="uni1EC9" unicode="&#x1ec9;" horiz-adv-x="535" 
d="M91 0v1062h353v-1062h-353zM52 1513q113 0 211.5 -9t159.5 -39t61 -94q0 -83 -85.5 -122t-215.5 -39l-35 91q30 2 69.5 7t69 16.5t29.5 32.5q0 30 -69 39t-195 9v108z" />
    <glyph glyph-name="uni020B" unicode="&#x20b;" horiz-adv-x="535" 
d="M91 0v1062h353v-1062h-353zM-38 1227q0 131 87 196.5t220 65.5q132 0 219 -65.5t87 -196.5h-206q0 60 -25.5 94t-74.5 34q-48 0 -74.5 -34t-26.5 -94h-206z" />
    <glyph glyph-name="imacron" unicode="&#x12b;" horiz-adv-x="535" 
d="M91 0v1062h353v-1062h-353zM33 1276v146h471v-146h-471z" />
    <glyph glyph-name="iogonek" unicode="&#x12f;" horiz-adv-x="535" 
d="M91 0v1062h353v-1062h-353zM444 -283v-168q-20 -2 -44 -3.5t-50 -1.5q-107 0 -185.5 41.5t-78.5 135.5q0 56 34 112t78 100.5t76 66.5h170q-27 -22 -67 -64.5t-71 -87.5t-31 -77q0 -36 28.5 -48t66.5 -12q19 0 38.5 2t35.5 4zM268 1211q-80 0 -140 41.5t-60 119.5
t60 119.5t140 41.5q81 0 141 -41.5t60 -119.5t-60 -119.5t-141 -41.5z" />
    <glyph glyph-name="itilde" unicode="&#x129;" horiz-adv-x="535" 
d="M91 0v1062h353v-1062h-353zM615 1457q0 -58 -23 -115t-69.5 -95t-118.5 -38q-57 0 -93.5 21.5t-58.5 41.5q-22 22 -42 36.5t-46 14.5q-64 0 -65 -95h-177q0 59 24 116.5t72.5 96t122.5 38.5q51 0 88 -22t59 -43q23 -20 45.5 -34.5t46.5 -14.5q58 0 59 92h176z" />
    <glyph glyph-name="j" unicode="j" horiz-adv-x="550" 
d="M282 1211q-81 0 -141 42t-60 119q0 78 60 119.5t141 41.5q80 0 140 -41.5t60 -119.5q0 -77 -60 -119t-140 -42zM-36 -460q-30 0 -58.5 1t-47.5 3v262q19 -3 47 -5.5t59 -2.5q84 0 110.5 40t26.5 79v1145h355v-1153q0 -65 -17.5 -130.5t-68.5 -119.5t-148.5 -86.5
t-257.5 -32.5z" />
    <glyph glyph-name="uni0237" unicode="&#x237;" horiz-adv-x="550" 
d="M-36 -460q-30 0 -58.5 1t-47.5 3v262q19 -3 47 -5.5t59 -2.5q84 0 110.5 40t26.5 79v1145h355v-1153q0 -65 -17.5 -130.5t-68.5 -119.5t-148.5 -86.5t-257.5 -32.5z" />
    <glyph glyph-name="jcircumflex" unicode="&#x135;" horiz-adv-x="550" 
d="M-36 -460q-30 0 -58.5 1t-47.5 3v262q19 -3 47 -5.5t59 -2.5q84 0 110.5 40t26.5 79v1145h355v-1153q0 -65 -17.5 -130.5t-68.5 -119.5t-148.5 -86.5t-257.5 -32.5zM-79 1194l250 281h224l249 -281h-222l-141 163l-139 -163h-221z" />
    <glyph glyph-name="k" unicode="k" horiz-adv-x="1182" 
d="M111 0v1563h338v-780l305 279h434l-434 -389l420 -673h-373l-273 470l-79 -73v-397h-338z" />
    <glyph glyph-name="uni01E9" unicode="&#x1e9;" horiz-adv-x="1182" 
d="M111 0v1563h338v-780l305 279h434l-434 -389l420 -673h-373l-273 470l-79 -73v-397h-338zM-82 1863h222l140 -124l140 124h223l-249 -216h-226z" />
    <glyph glyph-name="uni0137" unicode="&#x137;" horiz-adv-x="1182" 
d="M111 0v1563h338v-780l305 279h434l-434 -389l420 -673h-373l-273 470l-79 -73v-397h-338zM602 -276q-50 0 -79 26t-29 71q0 57 42.5 80.5t90.5 23.5q43 0 88.5 -29t45.5 -101q0 -79 -35.5 -130.5t-84.5 -81.5t-88 -44l-20 53q31 10 65 30.5t58 52.5t24 78
q-9 -14 -31.5 -21.5t-46.5 -7.5z" />
    <glyph glyph-name="kgreenlandic" unicode="&#x138;" horiz-adv-x="1086" 
d="M714 0l-190 326l-76 -100v-226h-337v1062h337v-434l272 434h368l-350 -486l354 -576h-378z" />
    <glyph glyph-name="l" unicode="l" horiz-adv-x="592" 
d="M477 1563v-1563h-351v1563h351z" />
    <glyph glyph-name="l.ss01" horiz-adv-x="667" 
d="M478 -24q-60 0 -124 10.5t-119.5 43.5t-89.5 99.5t-34 179.5v1254h357v-1196q0 -73 25 -98t60 -25q27 0 51 6t43 14v-263q-27 -10 -70.5 -17.5t-98.5 -7.5z" />
    <glyph glyph-name="lacute" unicode="&#x13a;" horiz-adv-x="592" 
d="M477 1563v-1563h-351v1563h351zM114 1649l270 215h274l-308 -215h-236z" />
    <glyph glyph-name="lacute.ss01" horiz-adv-x="667" 
d="M478 -24q-60 0 -124 10.5t-119.5 43.5t-89.5 99.5t-34 179.5v1254h357v-1196q0 -73 25 -98t60 -25q27 0 51 6t43 14v-263q-27 -10 -70.5 -17.5t-98.5 -7.5zM105 1695l237 281h264l-276 -281h-225z" />
    <glyph glyph-name="lcaron" unicode="&#x13e;" horiz-adv-x="767" 
d="M477 1563v-1563h-351v1563h351zM767 1563q0 -92 -12 -180t-26 -155t-22 -96h-162q8 30 16.5 96t15 153.5t6.5 181.5h184z" />
    <glyph glyph-name="lcaron.ss01" horiz-adv-x="813" 
d="M493 -24q-60 0 -124 10.5t-119.5 43.5t-89.5 99.5t-34 179.5v1254h357v-1196q0 -73 25 -98t60 -25q27 0 51 6t43 14v-263q-27 -10 -70.5 -17.5t-98.5 -7.5zM813 1563q0 -92 -12 -180t-26 -155t-22 -96h-162q8 30 16.5 96t15 153.5t6.5 181.5h184z" />
    <glyph glyph-name="uni013C" unicode="&#x13c;" horiz-adv-x="592" 
d="M477 1563v-1563h-351v1563h351zM272 -276q-50 0 -79 26t-29 71q0 57 42.5 80.5t90.5 23.5q43 0 88.5 -29t45.5 -101q0 -79 -35.5 -130.5t-84.5 -81.5t-88 -44l-20 53q31 10 65 30.5t58 52.5t24 78q-9 -14 -31.5 -21.5t-46.5 -7.5z" />
    <glyph glyph-name="uni013C.ss01" horiz-adv-x="667" 
d="M478 -24q-60 0 -124 10.5t-119.5 43.5t-89.5 99.5t-34 179.5v1254h357v-1196q0 -73 25 -98t60 -25q27 0 51 6t43 14v-263q-27 -10 -70.5 -17.5t-98.5 -7.5zM367 -294q-50 0 -79 26t-29 71q0 57 42.5 80.5t90.5 23.5q43 0 88.5 -29t45.5 -101q0 -79 -35.5 -130.5
t-84.5 -81.5t-88 -44l-20 53q31 10 65 30.5t58 52.5t24 78q-9 -14 -31.5 -21.5t-46.5 -7.5z" />
    <glyph glyph-name="ldot" unicode="&#x140;" horiz-adv-x="958" 
d="M462 1563v-1563h-351v1563h351zM740 633q-75 0 -127.5 52.5t-52.5 128.5q0 74 52.5 127t127.5 53t127.5 -53t52.5 -127q0 -76 -52.5 -128.5t-127.5 -52.5z" />
    <glyph glyph-name="ldot.ss01" horiz-adv-x="986" 
d="M478 -24q-60 0 -124 10.5t-119.5 43.5t-89.5 99.5t-34 179.5v1254h357v-1196q0 -73 25 -98t60 -25q27 0 51 6t43 14v-263q-27 -10 -70.5 -17.5t-98.5 -7.5zM760 633q-75 0 -127.5 52.5t-52.5 128.5q0 74 52.5 127t127.5 53t127.5 -53t52.5 -127q0 -76 -52.5 -128.5
t-127.5 -52.5z" />
    <glyph glyph-name="uni1E37" unicode="&#x1e37;" horiz-adv-x="592" 
d="M477 1563v-1563h-351v1563h351zM300 -434q-81 0 -140.5 42t-59.5 119q0 78 59.5 120t140.5 42q80 0 140.5 -42t60.5 -120t-60.5 -119.5t-140.5 -41.5z" />
    <glyph glyph-name="uni1E37.ss01" horiz-adv-x="667" 
d="M478 -24q-60 0 -124 10.5t-119.5 43.5t-89.5 99.5t-34 179.5v1254h357v-1196q0 -73 25 -98t60 -25q27 0 51 6t43 14v-263q-27 -10 -70.5 -17.5t-98.5 -7.5zM395 -452q-81 0 -140.5 42t-59.5 119q0 78 59.5 120t140.5 42q80 0 140.5 -42t60.5 -120t-60.5 -119.5
t-140.5 -41.5z" />
    <glyph glyph-name="uni01C9" unicode="&#x1c9;" horiz-adv-x="1216" 
d="M478 -24q-60 0 -124 10.5t-119.5 43.5t-89.5 99.5t-34 179.5v1254h357v-1196q0 -73 25 -98t60 -25q27 0 51 6t43 14v-263q-27 -10 -70.5 -17.5t-98.5 -7.5zM949 1211q-81 0 -141 42t-60 119q0 78 60 119.5t141 41.5q80 0 140 -41.5t60 -119.5q0 -77 -60 -119t-140 -42z
M631 -460q-30 0 -58.5 1t-47.5 3v262q19 -3 47 -5.5t59 -2.5q84 0 110.5 40t26.5 79v1145h355v-1153q0 -65 -17.5 -130.5t-68.5 -119.5t-148.5 -86.5t-257.5 -32.5z" />
    <glyph glyph-name="uni1E3B" unicode="&#x1e3b;" horiz-adv-x="592" 
d="M477 1563v-1563h-351v1563h351zM-2 -317v145h597v-145h-597z" />
    <glyph glyph-name="uni1E3B.ss01" horiz-adv-x="667" 
d="M478 -24q-60 0 -124 10.5t-119.5 43.5t-89.5 99.5t-34 179.5v1254h357v-1196q0 -73 25 -98t60 -25q27 0 51 6t43 14v-263q-27 -10 -70.5 -17.5t-98.5 -7.5zM93 -335v145h597v-145h-597z" />
    <glyph glyph-name="lslash" unicode="&#x142;" horiz-adv-x="552" 
d="M-86 784l212 102v677h351v-508l58 28l88 -185l-146 -70v-828h-351v659l-124 -59z" />
    <glyph glyph-name="lslash.ss01" horiz-adv-x="656" 
d="M478 -24q-60 0 -124 10.5t-119.5 43.5t-89.5 99.5t-34 179.5v342l-107 -51l-89 184l196 94v685h357v-513l69 33l88 -185l-157 -76v-455q0 -73 25 -98t60 -25q27 0 51 6t43 14v-263q-27 -10 -70.5 -17.5t-98.5 -7.5z" />
    <glyph glyph-name="m" unicode="m" horiz-adv-x="1896" 
d="M111 0v1062h356v-143q52 78 133.5 121t188.5 43q136 0 209.5 -59t104.5 -153q48 99 137 155.5t212 56.5q134 0 209 -58t105 -153t30 -209v-663h-357v565q0 60 -9 110t-39.5 79.5t-93.5 29.5q-87 0 -126.5 -71.5t-39.5 -173.5v-539h-354v564q0 54 -8.5 104.5t-39 83
t-94.5 32.5q-87 0 -127.5 -72t-40.5 -176v-536h-356z" />
    <glyph glyph-name="uni1E43" unicode="&#x1e43;" horiz-adv-x="1896" 
d="M111 0v1062h356v-143q52 78 133.5 121t188.5 43q136 0 209.5 -59t104.5 -153q48 99 137 155.5t212 56.5q134 0 209 -58t105 -153t30 -209v-663h-357v565q0 60 -9 110t-39.5 79.5t-93.5 29.5q-87 0 -126.5 -71.5t-39.5 -173.5v-539h-354v564q0 54 -8.5 104.5t-39 83
t-94.5 32.5q-87 0 -127.5 -72t-40.5 -176v-536h-356zM968 -434q-81 0 -140.5 42t-59.5 119q0 78 59.5 120t140.5 42q80 0 140.5 -42t60.5 -120t-60.5 -119.5t-140.5 -41.5z" />
    <glyph glyph-name="n" unicode="n" horiz-adv-x="1311" 
d="M111 0v1062h356v-165q60 88 156 137t212 49q133 0 215.5 -54t121 -150t38.5 -221v-658h-356v554q0 60 -13.5 112.5t-52.5 85t-116 32.5q-102 0 -153.5 -65.5t-51.5 -174.5v-544h-356z" />
    <glyph glyph-name="nacute" unicode="&#x144;" horiz-adv-x="1311" 
d="M111 0v1062h356v-165q60 88 156 137t212 49q133 0 215.5 -54t121 -150t38.5 -221v-658h-356v554q0 60 -13.5 112.5t-52.5 85t-116 32.5q-102 0 -153.5 -65.5t-51.5 -174.5v-544h-356zM493 1194l237 281h264l-276 -281h-225z" />
    <glyph glyph-name="ncaron" unicode="&#x148;" horiz-adv-x="1311" 
d="M111 0v1062h356v-165q60 88 156 137t212 49q133 0 215.5 -54t121 -150t38.5 -221v-658h-356v554q0 60 -13.5 112.5t-52.5 85t-116 32.5q-102 0 -153.5 -65.5t-51.5 -174.5v-544h-356zM313 1475h221l139 -163l141 163h222l-249 -281h-224z" />
    <glyph glyph-name="uni0146" unicode="&#x146;" horiz-adv-x="1311" 
d="M111 0v1062h356v-165q60 88 156 137t212 49q133 0 215.5 -54t121 -150t38.5 -221v-658h-356v554q0 60 -13.5 112.5t-52.5 85t-116 32.5q-102 0 -153.5 -65.5t-51.5 -174.5v-544h-356zM623 -276q-50 0 -79 26t-29 71q0 57 42.5 80.5t90.5 23.5q43 0 88.5 -29t45.5 -101
q0 -79 -35.5 -130.5t-84.5 -81.5t-88 -44l-20 53q31 10 65 30.5t58 52.5t24 78q-9 -14 -31.5 -21.5t-46.5 -7.5z" />
    <glyph glyph-name="uni1E45" unicode="&#x1e45;" horiz-adv-x="1311" 
d="M111 0v1062h356v-165q60 88 156 137t212 49q133 0 215.5 -54t121 -150t38.5 -221v-658h-356v554q0 60 -13.5 112.5t-52.5 85t-116 32.5q-102 0 -153.5 -65.5t-51.5 -174.5v-544h-356zM673 1211q-80 0 -140 41.5t-60 119.5t60 119.5t140 41.5q81 0 141 -41.5t60 -119.5
t-60 -119.5t-141 -41.5z" />
    <glyph glyph-name="uni1E47" unicode="&#x1e47;" horiz-adv-x="1311" 
d="M111 0v1062h356v-165q60 88 156 137t212 49q133 0 215.5 -54t121 -150t38.5 -221v-658h-356v554q0 60 -13.5 112.5t-52.5 85t-116 32.5q-102 0 -153.5 -65.5t-51.5 -174.5v-544h-356zM651 -434q-81 0 -140.5 42t-59.5 119q0 78 59.5 120t140.5 42q80 0 140.5 -42
t60.5 -120t-60.5 -119.5t-140.5 -41.5z" />
    <glyph glyph-name="eng" unicode="&#x14b;" horiz-adv-x="1307" 
d="M111 0v1062h356v-165q60 88 156 137t212 49q133 0 214.5 -54t119 -150t37.5 -221v-687q0 -160 -62 -253.5t-192.5 -133.5t-335.5 -40v254q95 0 164.5 38t69.5 127v591q0 60 -12.5 112.5t-50.5 85t-115 32.5q-102 0 -153.5 -65.5t-51.5 -174.5v-544h-356z" />
    <glyph glyph-name="uni0272" unicode="&#x272;" horiz-adv-x="1241" 
d="M-142 -464v254q78 0 132.5 47.5t54.5 137.5v1087h357v-165q60 88 156 137t211 49q133 0 215 -54t119.5 -150t37.5 -221v-658h-357v554q0 60 -12 112.5t-50 85t-116 32.5q-98 0 -149.5 -61.5t-54.5 -165.5v-582q0 -82 -16 -160t-69.5 -141t-163 -100.5t-295.5 -37.5z" />
    <glyph glyph-name="uni01CC" unicode="&#x1cc;" horiz-adv-x="1860" 
d="M111 0v1062h356v-165q60 88 156 137t212 49q133 0 215.5 -54t121 -150t38.5 -221v-658h-356v554q0 60 -13.5 112.5t-52.5 85t-116 32.5q-102 0 -153.5 -65.5t-51.5 -174.5v-544h-356zM1593 1211q-81 0 -141 42t-60 119q0 78 60 119.5t141 41.5q80 0 140 -41.5t60 -119.5
q0 -77 -60 -119t-140 -42zM1275 -460q-30 0 -58.5 1t-47.5 3v262q19 -3 47 -5.5t59 -2.5q84 0 110.5 40t26.5 79v1145h355v-1153q0 -65 -17.5 -130.5t-68.5 -119.5t-148.5 -86.5t-257.5 -32.5z" />
    <glyph glyph-name="uni1E49" unicode="&#x1e49;" horiz-adv-x="1311" 
d="M111 0v1062h356v-165q60 88 156 137t212 49q133 0 215.5 -54t121 -150t38.5 -221v-658h-356v554q0 60 -13.5 112.5t-52.5 85t-116 32.5q-102 0 -153.5 -65.5t-51.5 -174.5v-544h-356zM349 -317v145h597v-145h-597z" />
    <glyph glyph-name="ntilde" unicode="&#xf1;" horiz-adv-x="1311" 
d="M111 0v1062h356v-165q60 88 156 137t212 49q133 0 215.5 -54t121 -150t38.5 -221v-658h-356v554q0 60 -13.5 112.5t-52.5 85t-116 32.5q-102 0 -153.5 -65.5t-51.5 -174.5v-544h-356zM1020 1457q0 -58 -23 -115t-69.5 -95t-118.5 -38q-57 0 -93.5 21.5t-58.5 41.5
q-22 22 -42 36.5t-46 14.5q-64 0 -65 -95h-177q0 59 24 116.5t72.5 96t122.5 38.5q51 0 88 -22t59 -43q23 -20 45.5 -34.5t46.5 -14.5q58 0 59 92h176z" />
    <glyph glyph-name="o" unicode="o" horiz-adv-x="1304" 
d="M652 -24q-176 0 -309.5 70.5t-209 195.5t-75.5 288q0 164 75.5 288.5t209 194.5t309.5 70t309.5 -70t209 -194.5t75.5 -288.5q0 -163 -75.5 -288t-209 -195.5t-309.5 -70.5zM652 251q107 0 169.5 76t62.5 203t-62.5 202t-169.5 75t-169.5 -75t-62.5 -202t62.5 -203
t169.5 -76z" />
    <glyph glyph-name="oacute" unicode="&#xf3;" horiz-adv-x="1304" 
d="M652 -24q-176 0 -309.5 70.5t-209 195.5t-75.5 288q0 164 75.5 288.5t209 194.5t309.5 70t309.5 -70t209 -194.5t75.5 -288.5q0 -163 -75.5 -288t-209 -195.5t-309.5 -70.5zM652 251q107 0 169.5 76t62.5 203t-62.5 202t-169.5 75t-169.5 -75t-62.5 -202t62.5 -203
t169.5 -76zM471 1194l237 281h264l-276 -281h-225z" />
    <glyph glyph-name="obreve" unicode="&#x14f;" horiz-adv-x="1304" 
d="M652 -24q-176 0 -309.5 70.5t-209 195.5t-75.5 288q0 164 75.5 288.5t209 194.5t309.5 70t309.5 -70t209 -194.5t75.5 -288.5q0 -163 -75.5 -288t-209 -195.5t-309.5 -70.5zM652 251q107 0 169.5 76t62.5 203t-62.5 202t-169.5 75t-169.5 -75t-62.5 -202t62.5 -203
t169.5 -76zM346 1495h206q0 -60 26 -99.5t74 -39.5q49 0 74.5 39.5t25.5 99.5h207q0 -131 -87 -201.5t-220 -70.5t-219.5 70.5t-86.5 201.5z" />
    <glyph glyph-name="uni01D2" unicode="&#x1d2;" horiz-adv-x="1304" 
d="M652 -24q-176 0 -309.5 70.5t-209 195.5t-75.5 288q0 164 75.5 288.5t209 194.5t309.5 70t309.5 -70t209 -194.5t75.5 -288.5q0 -163 -75.5 -288t-209 -195.5t-309.5 -70.5zM652 251q107 0 169.5 76t62.5 203t-62.5 202t-169.5 75t-169.5 -75t-62.5 -202t62.5 -203
t169.5 -76zM291 1475h221l139 -163l141 163h222l-249 -281h-224z" />
    <glyph glyph-name="ocircumflex" unicode="&#xf4;" horiz-adv-x="1304" 
d="M652 -24q-176 0 -309.5 70.5t-209 195.5t-75.5 288q0 164 75.5 288.5t209 194.5t309.5 70t309.5 -70t209 -194.5t75.5 -288.5q0 -163 -75.5 -288t-209 -195.5t-309.5 -70.5zM652 251q107 0 169.5 76t62.5 203t-62.5 202t-169.5 75t-169.5 -75t-62.5 -202t62.5 -203
t169.5 -76zM291 1194l250 281h224l249 -281h-222l-141 163l-139 -163h-221z" />
    <glyph glyph-name="uni1ED1" unicode="&#x1ed1;" horiz-adv-x="1304" 
d="M652 -24q-176 0 -309.5 70.5t-209 195.5t-75.5 288q0 164 75.5 288.5t209 194.5t309.5 70t309.5 -70t209 -194.5t75.5 -288.5q0 -163 -75.5 -288t-209 -195.5t-309.5 -70.5zM652 251q107 0 169.5 76t62.5 203t-62.5 202t-169.5 75t-169.5 -75t-62.5 -202t62.5 -203
t169.5 -76zM831 1432l196 281h227l-219 -281h-204zM290 1194l250 281h224l249 -281h-222l-141 163l-139 -163h-221z" />
    <glyph glyph-name="uni1ED9" unicode="&#x1ed9;" horiz-adv-x="1304" 
d="M652 -24q-176 0 -309.5 70.5t-209 195.5t-75.5 288q0 164 75.5 288.5t209 194.5t309.5 70t309.5 -70t209 -194.5t75.5 -288.5q0 -163 -75.5 -288t-209 -195.5t-309.5 -70.5zM652 251q107 0 169.5 76t62.5 203t-62.5 202t-169.5 75t-169.5 -75t-62.5 -202t62.5 -203
t169.5 -76zM655 -434q-81 0 -140.5 42t-59.5 119q0 78 59.5 120t140.5 42q80 0 140.5 -42t60.5 -120t-60.5 -119.5t-140.5 -41.5zM291 1194l250 281h224l249 -281h-222l-141 163l-139 -163h-221z" />
    <glyph glyph-name="uni1ED3" unicode="&#x1ed3;" horiz-adv-x="1304" 
d="M652 -24q-176 0 -309.5 70.5t-209 195.5t-75.5 288q0 164 75.5 288.5t209 194.5t309.5 70t309.5 -70t209 -194.5t75.5 -288.5q0 -163 -75.5 -288t-209 -195.5t-309.5 -70.5zM652 251q107 0 169.5 76t62.5 203t-62.5 202t-169.5 75t-169.5 -75t-62.5 -202t62.5 -203
t169.5 -76zM1114 1432h-204l-219 281h227zM293 1194l250 281h224l249 -281h-222l-141 163l-139 -163h-221z" />
    <glyph glyph-name="uni1ED5" unicode="&#x1ed5;" horiz-adv-x="1304" 
d="M652 -24q-176 0 -309.5 70.5t-209 195.5t-75.5 288q0 164 75.5 288.5t209 194.5t309.5 70t309.5 -70t209 -194.5t75.5 -288.5q0 -163 -75.5 -288t-209 -195.5t-309.5 -70.5zM652 251q107 0 169.5 76t62.5 203t-62.5 202t-169.5 75t-169.5 -75t-62.5 -202t62.5 -203
t169.5 -76zM906 1424l-30 79q26 1 61 5.5t60.5 14.5t25.5 28q0 27 -60.5 35t-171.5 8v94q99 0 185.5 -8t140 -34t53.5 -83q0 -72 -75 -105.5t-189 -33.5zM291 1194l250 281h224l249 -281h-222l-141 163l-139 -163h-221z" />
    <glyph glyph-name="uni1ED7" unicode="&#x1ed7;" horiz-adv-x="1304" 
d="M652 -24q-176 0 -309.5 70.5t-209 195.5t-75.5 288q0 164 75.5 288.5t209 194.5t309.5 70t309.5 -70t209 -194.5t75.5 -288.5q0 -163 -75.5 -288t-209 -195.5t-309.5 -70.5zM652 251q107 0 169.5 76t62.5 203t-62.5 202t-169.5 75t-169.5 -75t-62.5 -202t62.5 -203
t169.5 -76zM792 1559q-58 0 -94 21.5t-57 41.5q-22 21 -41.5 36t-46.5 15q-65 0 -66 -95h-177q0 59 24 116.5t72.5 96t122.5 38.5q51 0 88.5 -22t59.5 -43q22 -20 44.5 -34.5t46.5 -14.5q58 0 59 92h176q0 -58 -23 -115t-69.5 -95t-118.5 -38zM291 1194l250 281h224
l249 -281h-222l-141 163l-139 -163h-221z" />
    <glyph glyph-name="uni020D" unicode="&#x20d;" horiz-adv-x="1304" 
d="M652 -24q-176 0 -309.5 70.5t-209 195.5t-75.5 288q0 164 75.5 288.5t209 194.5t309.5 70t309.5 -70t209 -194.5t75.5 -288.5q0 -163 -75.5 -288t-209 -195.5t-309.5 -70.5zM652 251q107 0 169.5 76t62.5 203t-62.5 202t-169.5 75t-169.5 -75t-62.5 -202t62.5 -203
t169.5 -76zM922 1194h-186l-174 281h212zM582 1194h-186l-200 281h211z" />
    <glyph glyph-name="odieresis" unicode="&#xf6;" horiz-adv-x="1304" 
d="M652 -24q-176 0 -309.5 70.5t-209 195.5t-75.5 288q0 164 75.5 288.5t209 194.5t309.5 70t309.5 -70t209 -194.5t75.5 -288.5q0 -163 -75.5 -288t-209 -195.5t-309.5 -70.5zM652 251q107 0 169.5 76t62.5 203t-62.5 202t-169.5 75t-169.5 -75t-62.5 -202t62.5 -203
t169.5 -76zM394 1203q-73 0 -128 38.5t-55 109.5t55 109t128 38t128.5 -38t55.5 -109q0 -72 -55.5 -110t-128.5 -38zM908 1203q-73 0 -128 38.5t-55 109.5t55 109t128 38t128 -38t55 -109q0 -72 -55 -110t-128 -38z" />
    <glyph glyph-name="uni022B" unicode="&#x22b;" horiz-adv-x="1304" 
d="M652 -24q-176 0 -309.5 70.5t-209 195.5t-75.5 288q0 164 75.5 288.5t209 194.5t309.5 70t309.5 -70t209 -194.5t75.5 -288.5q0 -163 -75.5 -288t-209 -195.5t-309.5 -70.5zM652 251q107 0 169.5 76t62.5 203t-62.5 202t-169.5 75t-169.5 -75t-62.5 -202t62.5 -203
t169.5 -76zM394 1203q-73 0 -128 38.5t-55 109.5t55 109t128 38t128.5 -38t55.5 -109q0 -72 -55.5 -110t-128.5 -38zM908 1203q-73 0 -128 38.5t-55 109.5t55 109t128 38t128 -38t55 -109q0 -72 -55 -110t-128 -38zM322 1633v146h658v-146h-658z" />
    <glyph glyph-name="uni0231" unicode="&#x231;" horiz-adv-x="1304" 
d="M652 -24q-176 0 -309.5 70.5t-209 195.5t-75.5 288q0 164 75.5 288.5t209 194.5t309.5 70t309.5 -70t209 -194.5t75.5 -288.5q0 -163 -75.5 -288t-209 -195.5t-309.5 -70.5zM652 251q107 0 169.5 76t62.5 203t-62.5 202t-169.5 75t-169.5 -75t-62.5 -202t62.5 -203
t169.5 -76zM651 1211q-80 0 -140 41.5t-60 119.5t60 119.5t140 41.5q81 0 141 -41.5t60 -119.5t-60 -119.5t-141 -41.5zM322 1661v146h658v-146h-658z" />
    <glyph glyph-name="uni1ECD" unicode="&#x1ecd;" horiz-adv-x="1304" 
d="M652 -24q-176 0 -309.5 70.5t-209 195.5t-75.5 288q0 164 75.5 288.5t209 194.5t309.5 70t309.5 -70t209 -194.5t75.5 -288.5q0 -163 -75.5 -288t-209 -195.5t-309.5 -70.5zM652 251q107 0 169.5 76t62.5 203t-62.5 202t-169.5 75t-169.5 -75t-62.5 -202t62.5 -203
t169.5 -76zM655 -434q-81 0 -140.5 42t-59.5 119q0 78 59.5 120t140.5 42q80 0 140.5 -42t60.5 -120t-60.5 -119.5t-140.5 -41.5z" />
    <glyph glyph-name="ograve" unicode="&#xf2;" horiz-adv-x="1304" 
d="M652 -24q-176 0 -309.5 70.5t-209 195.5t-75.5 288q0 164 75.5 288.5t209 194.5t309.5 70t309.5 -70t209 -194.5t75.5 -288.5q0 -163 -75.5 -288t-209 -195.5t-309.5 -70.5zM652 251q107 0 169.5 76t62.5 203t-62.5 202t-169.5 75t-169.5 -75t-62.5 -202t62.5 -203
t169.5 -76zM830 1187h-225l-276 281h264z" />
    <glyph glyph-name="uni1ECF" unicode="&#x1ecf;" horiz-adv-x="1304" 
d="M652 -24q-176 0 -309.5 70.5t-209 195.5t-75.5 288q0 164 75.5 288.5t209 194.5t309.5 70t309.5 -70t209 -194.5t75.5 -288.5q0 -163 -75.5 -288t-209 -195.5t-309.5 -70.5zM652 251q107 0 169.5 76t62.5 203t-62.5 202t-169.5 75t-169.5 -75t-62.5 -202t62.5 -203
t169.5 -76zM435 1513q113 0 211.5 -9t159.5 -39t61 -94q0 -83 -85.5 -122t-215.5 -39l-35 91q30 2 69.5 7t69 16.5t29.5 32.5q0 30 -69 39t-195 9v108z" />
    <glyph glyph-name="ohorn" unicode="&#x1a1;" horiz-adv-x="1311" 
d="M646 -24q-176 0 -309.5 70.5t-208.5 195.5t-75 288q0 164 75 288.5t208.5 194.5t309.5 70q174 0 310 -71q54 5 81 30t36 82t9 158h192q0 -170 -40.5 -263t-117.5 -132q59 -70 91.5 -160.5t32.5 -196.5q0 -163 -75 -288t-209 -195.5t-310 -70.5zM646 251q107 0 171.5 76
t64.5 203t-64.5 202t-171.5 75q-106 0 -170.5 -75t-64.5 -202t64.5 -203t170.5 -76z" />
    <glyph glyph-name="uni1EDB" unicode="&#x1edb;" horiz-adv-x="1311" 
d="M646 -24q-176 0 -309.5 70.5t-208.5 195.5t-75 288q0 164 75 288.5t208.5 194.5t309.5 70q174 0 310 -71q54 5 81 30t36 82t9 158h192q0 -170 -40.5 -263t-117.5 -132q59 -70 91.5 -160.5t32.5 -196.5q0 -163 -75 -288t-209 -195.5t-310 -70.5zM646 251q107 0 171.5 76
t64.5 203t-64.5 202t-171.5 75q-106 0 -170.5 -75t-64.5 -202t64.5 -203t170.5 -76zM466 1194l237 281h264l-276 -281h-225z" />
    <glyph glyph-name="uni1EE3" unicode="&#x1ee3;" horiz-adv-x="1311" 
d="M646 -24q-176 0 -309.5 70.5t-208.5 195.5t-75 288q0 164 75 288.5t208.5 194.5t309.5 70q174 0 310 -71q54 5 81 30t36 82t9 158h192q0 -170 -40.5 -263t-117.5 -132q59 -70 91.5 -160.5t32.5 -196.5q0 -163 -75 -288t-209 -195.5t-310 -70.5zM646 251q107 0 171.5 76
t64.5 203t-64.5 202t-171.5 75q-106 0 -170.5 -75t-64.5 -202t64.5 -203t170.5 -76zM650 -434q-81 0 -140.5 42t-59.5 119q0 78 59.5 120t140.5 42q80 0 140.5 -42t60.5 -120t-60.5 -119.5t-140.5 -41.5z" />
    <glyph glyph-name="uni1EDD" unicode="&#x1edd;" horiz-adv-x="1311" 
d="M646 -24q-176 0 -309.5 70.5t-208.5 195.5t-75 288q0 164 75 288.5t208.5 194.5t309.5 70q174 0 310 -71q54 5 81 30t36 82t9 158h192q0 -170 -40.5 -263t-117.5 -132q59 -70 91.5 -160.5t32.5 -196.5q0 -163 -75 -288t-209 -195.5t-310 -70.5zM646 251q107 0 171.5 76
t64.5 203t-64.5 202t-171.5 75q-106 0 -170.5 -75t-64.5 -202t64.5 -203t170.5 -76zM824 1187h-225l-276 281h264z" />
    <glyph glyph-name="uni1EDF" unicode="&#x1edf;" horiz-adv-x="1311" 
d="M646 -24q-176 0 -309.5 70.5t-208.5 195.5t-75 288q0 164 75 288.5t208.5 194.5t309.5 70q174 0 310 -71q54 5 81 30t36 82t9 158h192q0 -170 -40.5 -263t-117.5 -132q59 -70 91.5 -160.5t32.5 -196.5q0 -163 -75 -288t-209 -195.5t-310 -70.5zM646 251q107 0 171.5 76
t64.5 203t-64.5 202t-171.5 75q-106 0 -170.5 -75t-64.5 -202t64.5 -203t170.5 -76zM430 1513q113 0 211.5 -9t159.5 -39t61 -94q0 -83 -85.5 -122t-215.5 -39l-35 91q30 2 69.5 7t69 16.5t29.5 32.5q0 30 -69 39t-195 9v108z" />
    <glyph glyph-name="uni1EE1" unicode="&#x1ee1;" horiz-adv-x="1311" 
d="M646 -24q-176 0 -309.5 70.5t-208.5 195.5t-75 288q0 164 75 288.5t208.5 194.5t309.5 70q174 0 310 -71q54 5 81 30t36 82t9 158h192q0 -170 -40.5 -263t-117.5 -132q59 -70 91.5 -160.5t32.5 -196.5q0 -163 -75 -288t-209 -195.5t-310 -70.5zM646 251q107 0 171.5 76
t64.5 203t-64.5 202t-171.5 75q-106 0 -170.5 -75t-64.5 -202t64.5 -203t170.5 -76zM993 1457q0 -58 -23 -115t-69.5 -95t-118.5 -38q-57 0 -93.5 21.5t-58.5 41.5q-22 22 -42 36.5t-46 14.5q-64 0 -65 -95h-177q0 59 24 116.5t72.5 96t122.5 38.5q51 0 88 -22t59 -43
q23 -20 45.5 -34.5t46.5 -14.5q58 0 59 92h176z" />
    <glyph glyph-name="ohungarumlaut" unicode="&#x151;" horiz-adv-x="1304" 
d="M652 -24q-176 0 -309.5 70.5t-209 195.5t-75.5 288q0 164 75.5 288.5t209 194.5t309.5 70t309.5 -70t209 -194.5t75.5 -288.5q0 -163 -75.5 -288t-209 -195.5t-309.5 -70.5zM652 251q107 0 169.5 76t62.5 203t-62.5 202t-169.5 75t-169.5 -75t-62.5 -202t62.5 -203
t169.5 -76zM384 1194l148 281h211l-182 -281h-177zM733 1194l166 281h211l-200 -281h-177z" />
    <glyph glyph-name="uni020F" unicode="&#x20f;" horiz-adv-x="1304" 
d="M652 -24q-176 0 -309.5 70.5t-209 195.5t-75.5 288q0 164 75.5 288.5t209 194.5t309.5 70t309.5 -70t209 -194.5t75.5 -288.5q0 -163 -75.5 -288t-209 -195.5t-309.5 -70.5zM652 251q107 0 169.5 76t62.5 203t-62.5 202t-169.5 75t-169.5 -75t-62.5 -202t62.5 -203
t169.5 -76zM345 1227q0 131 87 196.5t220 65.5q132 0 219 -65.5t87 -196.5h-206q0 60 -25.5 94t-74.5 34q-48 0 -74.5 -34t-26.5 -94h-206z" />
    <glyph glyph-name="omacron" unicode="&#x14d;" horiz-adv-x="1304" 
d="M652 -24q-176 0 -309.5 70.5t-209 195.5t-75.5 288q0 164 75.5 288.5t209 194.5t309.5 70t309.5 -70t209 -194.5t75.5 -288.5q0 -163 -75.5 -288t-209 -195.5t-309.5 -70.5zM652 251q107 0 169.5 76t62.5 203t-62.5 202t-169.5 75t-169.5 -75t-62.5 -202t62.5 -203
t169.5 -76zM323 1276v146h658v-146h-658z" />
    <glyph glyph-name="uni1E53" unicode="&#x1e53;" horiz-adv-x="1304" 
d="M652 -24q-176 0 -309.5 70.5t-209 195.5t-75.5 288q0 164 75.5 288.5t209 194.5t309.5 70t309.5 -70t209 -194.5t75.5 -288.5q0 -163 -75.5 -288t-209 -195.5t-309.5 -70.5zM652 251q107 0 169.5 76t62.5 203t-62.5 202t-169.5 75t-169.5 -75t-62.5 -202t62.5 -203
t169.5 -76zM323 1276v146h658v-146h-658zM471 1554l237 281h264l-276 -281h-225z" />
    <glyph glyph-name="uni1E51" unicode="&#x1e51;" horiz-adv-x="1304" 
d="M652 -24q-176 0 -309.5 70.5t-209 195.5t-75.5 288q0 164 75.5 288.5t209 194.5t309.5 70t309.5 -70t209 -194.5t75.5 -288.5q0 -163 -75.5 -288t-209 -195.5t-309.5 -70.5zM652 251q107 0 169.5 76t62.5 203t-62.5 202t-169.5 75t-169.5 -75t-62.5 -202t62.5 -203
t169.5 -76zM323 1276v146h658v-146h-658zM830 1547h-225l-276 281h264z" />
    <glyph glyph-name="uni01EB" unicode="&#x1eb;" horiz-adv-x="1293" 
d="M652 -24q-176 0 -309.5 70.5t-209 195.5t-75.5 288q0 164 75.5 288.5t209 194.5t309.5 70t309.5 -70t209 -194.5t75.5 -288.5q0 -183 -94.5 -318t-255.5 -194q-29 -25 -67 -66t-66.5 -84t-28.5 -74q0 -35 28.5 -47.5t66.5 -12.5q18 0 37.5 2t36.5 5v-168q-21 -2 -45 -3.5
t-49 -1.5q-107 0 -185.5 41.5t-78.5 135.5q0 63 42.5 125.5t88.5 106.5q-12 -1 -24 -1zM652 251q107 0 169.5 76t62.5 203t-62.5 202t-169.5 75t-169.5 -75t-62.5 -202t62.5 -203t169.5 -76z" />
    <glyph glyph-name="oslash" unicode="&#xf8;" horiz-adv-x="1304" 
d="M652 -24q-156 0 -282 57l-73 -96l-121 91l65 86q-86 74 -134.5 180.5t-48.5 235.5q0 164 75.5 288.5t209 194.5t309.5 70q152 0 276 -55l73 97l122 -91l-64 -85q88 -74 137.5 -180.5t49.5 -238.5q0 -163 -75.5 -288t-209 -195.5t-309.5 -70.5zM420 530q0 -80 26 -142
l301 400q-43 19 -95 19q-107 0 -169.5 -75t-62.5 -202zM652 251q107 0 169.5 76t62.5 203q0 85 -29 148l-304 -404q45 -23 101 -23z" />
    <glyph glyph-name="oslashacute" unicode="&#x1ff;" horiz-adv-x="1304" 
d="M652 -24q-156 0 -282 57l-73 -96l-121 91l65 86q-86 74 -134.5 180.5t-48.5 235.5q0 164 75.5 288.5t209 194.5t309.5 70q152 0 276 -55l73 97l122 -91l-64 -85q88 -74 137.5 -180.5t49.5 -238.5q0 -163 -75.5 -288t-209 -195.5t-309.5 -70.5zM420 530q0 -80 26 -142
l301 400q-43 19 -95 19q-107 0 -169.5 -75t-62.5 -202zM652 251q107 0 169.5 76t62.5 203q0 85 -29 148l-304 -404q45 -23 101 -23zM469 1194l237 281h264l-276 -281h-225z" />
    <glyph glyph-name="otilde" unicode="&#xf5;" horiz-adv-x="1304" 
d="M652 -24q-176 0 -309.5 70.5t-209 195.5t-75.5 288q0 164 75.5 288.5t209 194.5t309.5 70t309.5 -70t209 -194.5t75.5 -288.5q0 -163 -75.5 -288t-209 -195.5t-309.5 -70.5zM652 251q107 0 169.5 76t62.5 203t-62.5 202t-169.5 75t-169.5 -75t-62.5 -202t62.5 -203
t169.5 -76zM998 1457q0 -58 -23 -115t-69.5 -95t-118.5 -38q-57 0 -93.5 21.5t-58.5 41.5q-22 22 -42 36.5t-46 14.5q-64 0 -65 -95h-177q0 59 24 116.5t72.5 96t122.5 38.5q51 0 88 -22t59 -43q23 -20 45.5 -34.5t46.5 -14.5q58 0 59 92h176z" />
    <glyph glyph-name="uni1E4D" unicode="&#x1e4d;" horiz-adv-x="1304" 
d="M652 -24q-176 0 -309.5 70.5t-209 195.5t-75.5 288q0 164 75.5 288.5t209 194.5t309.5 70t309.5 -70t209 -194.5t75.5 -288.5q0 -163 -75.5 -288t-209 -195.5t-309.5 -70.5zM652 251q107 0 169.5 76t62.5 203t-62.5 202t-169.5 75t-169.5 -75t-62.5 -202t62.5 -203
t169.5 -76zM998 1457q0 -58 -23 -115t-69.5 -95t-118.5 -38q-57 0 -93.5 21.5t-58.5 41.5q-22 22 -42 36.5t-46 14.5q-64 0 -65 -95h-177q0 59 24 116.5t72.5 96t122.5 38.5q51 0 88 -22t59 -43q23 -20 45.5 -34.5t46.5 -14.5q58 0 59 92h176zM470 1572l270 215h274
l-308 -215h-236z" />
    <glyph glyph-name="uni1E4F" unicode="&#x1e4f;" horiz-adv-x="1304" 
d="M652 -24q-176 0 -309.5 70.5t-209 195.5t-75.5 288q0 164 75.5 288.5t209 194.5t309.5 70t309.5 -70t209 -194.5t75.5 -288.5q0 -163 -75.5 -288t-209 -195.5t-309.5 -70.5zM652 251q107 0 169.5 76t62.5 203t-62.5 202t-169.5 75t-169.5 -75t-62.5 -202t62.5 -203
t169.5 -76zM998 1457q0 -58 -23 -115t-69.5 -95t-118.5 -38q-57 0 -93.5 21.5t-58.5 41.5q-22 22 -42 36.5t-46 14.5q-64 0 -65 -95h-177q0 59 24 116.5t72.5 96t122.5 38.5q51 0 88 -22t59 -43q23 -20 45.5 -34.5t46.5 -14.5q58 0 59 92h176zM395 1547q-73 0 -128 38.5
t-55 109.5t55 109t128 38t128.5 -38t55.5 -109q0 -72 -55.5 -110t-128.5 -38zM909 1547q-73 0 -128 38.5t-55 109.5t55 109t128 38t128 -38t55 -109q0 -72 -55 -110t-128 -38z" />
    <glyph glyph-name="uni022D" unicode="&#x22d;" horiz-adv-x="1304" 
d="M652 -24q-176 0 -309.5 70.5t-209 195.5t-75.5 288q0 164 75.5 288.5t209 194.5t309.5 70t309.5 -70t209 -194.5t75.5 -288.5q0 -163 -75.5 -288t-209 -195.5t-309.5 -70.5zM652 251q107 0 169.5 76t62.5 203t-62.5 202t-169.5 75t-169.5 -75t-62.5 -202t62.5 -203
t169.5 -76zM998 1457q0 -58 -23 -115t-69.5 -95t-118.5 -38q-57 0 -93.5 21.5t-58.5 41.5q-22 22 -42 36.5t-46 14.5q-64 0 -65 -95h-177q0 59 24 116.5t72.5 96t122.5 38.5q51 0 88 -22t59 -43q23 -20 45.5 -34.5t46.5 -14.5q58 0 59 92h176zM322 1620v146h658v-146h-658z
" />
    <glyph glyph-name="oe" unicode="&#x153;" horiz-adv-x="2135" 
d="M652 -24q-176 0 -309.5 70.5t-209 195.5t-75.5 288q0 164 75.5 288.5t209 194.5t309.5 70q126 0 232 -37.5t182 -105.5q78 68 184.5 105.5t233.5 37.5q183 0 316 -70.5t205 -198.5t72 -301q0 -27 -1.5 -49.5t-2.5 -34.5h-831q19 -91 79 -141.5t173 -50.5t162 32.5
t54 66.5h352q-9 -93 -79 -175.5t-196 -134t-303 -51.5q-130 0 -236 37.5t-183 106.5q-77 -68 -182.5 -105.5t-230.5 -37.5zM1250 652h466q0 4 -2 10q-12 60 -65 111.5t-160 51.5q-101 0 -159.5 -48.5t-79.5 -124.5zM652 251q107 0 171 76t64 203t-64 202t-171 75t-171 -75
t-64 -202t64 -203t171 -76z" />
    <glyph glyph-name="p" unicode="p" horiz-adv-x="1345" 
d="M111 -437v1499h357v-118q62 65 144.5 102t176.5 37q128 0 242 -63.5t184.5 -185t70.5 -297.5q0 -185 -69 -310t-182 -188.5t-246 -63.5q-94 0 -176.5 39t-144.5 108v-559h-357zM468 503q0 -71 32.5 -121t84 -76.5t106.5 -26.5q89 0 158 62t69 196t-68.5 193.5
t-158.5 59.5q-54 0 -105.5 -25.5t-84.5 -74t-33 -119.5v0v-56v0v-12z" />
    <glyph glyph-name="thorn" unicode="&#xfe;" horiz-adv-x="1344" 
d="M111 -437v2000h357v-619q62 65 144.5 101.5t176.5 36.5q128 0 241.5 -63t184.5 -184.5t71 -297.5q0 -185 -69 -309.5t-182 -188t-246 -63.5q-94 0 -176.5 39t-144.5 107v-559h-357zM691 790q-55 0 -106 -25.5t-84 -74t-33 -119.5v-68q0 -71 32.5 -121t84 -76.5
t106.5 -26.5q89 0 158 62t69 196t-68.5 193.5t-158.5 59.5z" />
    <glyph glyph-name="q" unicode="q" horiz-adv-x="1340" 
d="M556 -25q-133 0 -246.5 63.5t-182.5 188.5t-69 310q0 176 71 297.5t184.5 185t242.5 63.5q93 0 176 -37t145 -102v118h357v-1499h-357v558q-62 -68 -144.5 -107t-176.5 -39zM653 279q57 0 108 27t83.5 77t32.5 121v67q0 71 -33 119.5t-84.5 74t-106.5 25.5
q-89 0 -158 -59.5t-69 -193.5t69.5 -196t157.5 -62z" />
    <glyph glyph-name="r" unicode="r" horiz-adv-x="958" 
d="M111 0v1062h357v-146q48 78 125.5 122.5t183.5 44.5q64 0 99 -9t44 -14l-53 -315q-9 5 -40 15.5t-77 10.5q-106 0 -167.5 -44t-88 -112.5t-26.5 -139.5v-475h-357z" />
    <glyph glyph-name="racute" unicode="&#x155;" horiz-adv-x="958" 
d="M111 0v1062h357v-146q48 78 125.5 122.5t183.5 44.5q64 0 99 -9t44 -14l-53 -315q-9 5 -40 15.5t-77 10.5q-106 0 -167.5 -44t-88 -112.5t-26.5 -139.5v-475h-357zM371 1194l237 281h264l-276 -281h-225z" />
    <glyph glyph-name="rcaron" unicode="&#x159;" horiz-adv-x="958" 
d="M111 0v1062h357v-146q48 78 125.5 122.5t183.5 44.5q64 0 99 -9t44 -14l-53 -315q-9 5 -40 15.5t-77 10.5q-106 0 -167.5 -44t-88 -112.5t-26.5 -139.5v-475h-357zM191 1475h221l139 -163l141 163h222l-249 -281h-224z" />
    <glyph glyph-name="uni0157" unicode="&#x157;" horiz-adv-x="958" 
d="M111 0v1062h357v-146q48 78 125.5 122.5t183.5 44.5q64 0 99 -9t44 -14l-53 -315q-9 5 -40 15.5t-77 10.5q-106 0 -167.5 -44t-88 -112.5t-26.5 -139.5v-475h-357zM263 -276q-50 0 -79 26t-29 71q0 57 42.5 80.5t90.5 23.5q43 0 88.5 -29t45.5 -101q0 -79 -35.5 -130.5
t-84.5 -81.5t-88 -44l-20 53q31 10 65 30.5t58 52.5t24 78q-9 -14 -31.5 -21.5t-46.5 -7.5z" />
    <glyph glyph-name="uni0211" unicode="&#x211;" horiz-adv-x="958" 
d="M111 0v1062h357v-146q48 78 125.5 122.5t183.5 44.5q64 0 99 -9t44 -14l-53 -315q-9 5 -40 15.5t-77 10.5q-106 0 -167.5 -44t-88 -112.5t-26.5 -139.5v-475h-357zM822 1194h-186l-174 281h212zM482 1194h-186l-200 281h211z" />
    <glyph glyph-name="uni1E5B" unicode="&#x1e5b;" horiz-adv-x="958" 
d="M111 0v1062h357v-146q48 78 125.5 122.5t183.5 44.5q64 0 99 -9t44 -14l-53 -315q-9 5 -40 15.5t-77 10.5q-106 0 -167.5 -44t-88 -112.5t-26.5 -139.5v-475h-357zM291 -434q-81 0 -140.5 42t-59.5 119q0 78 59.5 120t140.5 42q80 0 140.5 -42t60.5 -120t-60.5 -119.5
t-140.5 -41.5z" />
    <glyph glyph-name="uni0213" unicode="&#x213;" horiz-adv-x="958" 
d="M111 0v1062h357v-146q48 78 125.5 122.5t183.5 44.5q64 0 99 -9t44 -14l-53 -315q-9 5 -40 15.5t-77 10.5q-106 0 -167.5 -44t-88 -112.5t-26.5 -139.5v-475h-357zM245 1227q0 131 87 196.5t220 65.5q132 0 219 -65.5t87 -196.5h-206q0 60 -25.5 94t-74.5 34
q-48 0 -74.5 -34t-26.5 -94h-206z" />
    <glyph glyph-name="uni1E5F" unicode="&#x1e5f;" horiz-adv-x="958" 
d="M111 0v1062h357v-146q48 78 125.5 122.5t183.5 44.5q64 0 99 -9t44 -14l-53 -315q-9 5 -40 15.5t-77 10.5q-106 0 -167.5 -44t-88 -112.5t-26.5 -139.5v-475h-357zM-11 -317v145h597v-145h-597z" />
    <glyph glyph-name="s" unicode="s" horiz-adv-x="1132" 
d="M564 -25q-94 0 -184 22t-163 66.5t-116 111.5t-43 156v14h354v-12q0 -50 43.5 -72t118.5 -22q34 0 69.5 7.5t60 24.5t24.5 45q0 43 -52 61t-173 38q-70 11 -145.5 33t-140.5 59t-105 94.5t-40 139.5q0 113 68 189t180.5 114.5t247.5 38.5q127 0 239 -43t181.5 -123
t69.5 -190v-12h-350v11q0 51 -46 73.5t-96 22.5q-29 0 -63 -6.5t-58 -22.5t-24 -45q0 -40 61 -60t156 -35q62 -10 136.5 -28.5t143 -54t112 -94.5t43.5 -150q0 -96 -44.5 -163t-118.5 -108.5t-164.5 -60.5t-181.5 -19z" />
    <glyph glyph-name="sacute" unicode="&#x15b;" horiz-adv-x="1132" 
d="M564 -25q-94 0 -184 22t-163 66.5t-116 111.5t-43 156v14h354v-12q0 -50 43.5 -72t118.5 -22q34 0 69.5 7.5t60 24.5t24.5 45q0 43 -52 61t-173 38q-70 11 -145.5 33t-140.5 59t-105 94.5t-40 139.5q0 113 68 189t180.5 114.5t247.5 38.5q127 0 239 -43t181.5 -123
t69.5 -190v-12h-350v11q0 51 -46 73.5t-96 22.5q-29 0 -63 -6.5t-58 -22.5t-24 -45q0 -40 61 -60t156 -35q62 -10 136.5 -28.5t143 -54t112 -94.5t43.5 -150q0 -96 -44.5 -163t-118.5 -108.5t-164.5 -60.5t-181.5 -19zM386 1194l237 281h264l-276 -281h-225z" />
    <glyph glyph-name="uni1E65" unicode="&#x1e65;" horiz-adv-x="1132" 
d="M564 -25q-94 0 -184 22t-163 66.5t-116 111.5t-43 156v14h354v-12q0 -50 43.5 -72t118.5 -22q34 0 69.5 7.5t60 24.5t24.5 45q0 43 -52 61t-173 38q-70 11 -145.5 33t-140.5 59t-105 94.5t-40 139.5q0 113 68 189t180.5 114.5t247.5 38.5q127 0 239 -43t181.5 -123
t69.5 -190v-12h-350v11q0 51 -46 73.5t-96 22.5q-29 0 -63 -6.5t-58 -22.5t-24 -45q0 -40 61 -60t156 -35q62 -10 136.5 -28.5t143 -54t112 -94.5t43.5 -150q0 -96 -44.5 -163t-118.5 -108.5t-164.5 -60.5t-181.5 -19zM386 1194l237 281h264l-276 -281h-225zM575 1602
q-80 0 -140 41.5t-60 119.5t60 119.5t140 41.5q81 0 141 -41.5t60 -119.5t-60 -119.5t-141 -41.5z" />
    <glyph glyph-name="scaron" unicode="&#x161;" horiz-adv-x="1132" 
d="M564 -25q-94 0 -184 22t-163 66.5t-116 111.5t-43 156v14h354v-12q0 -50 43.5 -72t118.5 -22q34 0 69.5 7.5t60 24.5t24.5 45q0 43 -52 61t-173 38q-70 11 -145.5 33t-140.5 59t-105 94.5t-40 139.5q0 113 68 189t180.5 114.5t247.5 38.5q127 0 239 -43t181.5 -123
t69.5 -190v-12h-350v11q0 51 -46 73.5t-96 22.5q-29 0 -63 -6.5t-58 -22.5t-24 -45q0 -40 61 -60t156 -35q62 -10 136.5 -28.5t143 -54t112 -94.5t43.5 -150q0 -96 -44.5 -163t-118.5 -108.5t-164.5 -60.5t-181.5 -19zM205 1475h221l139 -163l141 163h222l-249 -281h-224z
" />
    <glyph glyph-name="uni1E67" unicode="&#x1e67;" horiz-adv-x="1132" 
d="M564 -25q-94 0 -184 22t-163 66.5t-116 111.5t-43 156v14h354v-12q0 -50 43.5 -72t118.5 -22q34 0 69.5 7.5t60 24.5t24.5 45q0 43 -52 61t-173 38q-70 11 -145.5 33t-140.5 59t-105 94.5t-40 139.5q0 113 68 189t180.5 114.5t247.5 38.5q127 0 239 -43t181.5 -123
t69.5 -190v-12h-350v11q0 51 -46 73.5t-96 22.5q-29 0 -63 -6.5t-58 -22.5t-24 -45q0 -40 61 -60t156 -35q62 -10 136.5 -28.5t143 -54t112 -94.5t43.5 -150q0 -96 -44.5 -163t-118.5 -108.5t-164.5 -60.5t-181.5 -19zM205 1475h221l139 -163l141 163h222l-249 -281h-224z
M569 1560q-80 0 -140 42t-60 119q0 78 60 119.5t140 41.5q81 0 141 -41.5t60 -119.5t-60 -119.5t-141 -41.5z" />
    </font>
</defs>
</svg>
